Люди Икс: Дни минувшего будущего / X-Men: Days of Future Past (Брайан Сингер / Bryan Singer) [2014, США, Великобритания, Канада, фантастика, боевик, приключения, BDRip 720p] Dub + AVO + VO + Ukr + Sub (Rus, Ukr, Eng) + Original Eng

 
 Статистика раздачи 
Размер: 7.89 ГБ   |  Зарегистрирован: 02 июл 2017, 22:30   |   .torrent скачан: 0 раз
Сидеров: 1  [ 0 байт/сек ]     Личеров: 0  [ 0 байт/сек ]  
  

Люди Икс: Дни минувшего будущего / X-Men: Days of Future Past (Брайан Сингер / Bryan Singer) [2014, США, Великобритания, Канада, фантастика, боевик, приключения, BDRip 720p] Dub + AVO + VO + Ukr + Sub (Rus, Ukr, Eng) + Original Eng

Сообщение Nakazhu » 02 июл 2017, 22:30

Люди Икс: Дни минувшего будущего / X-Men: Days of Future Past
Страна: США, Великобритания, Канада
Студия: 20th Century Fox Film Corporation, Bad Hat Harry Productions, Donners' Company, Down Productions, Ingenious Media, Marvel Entertainment, TSG Entertainment
Жанр: фантастика, боевик, приключения
Год выпуска: 2014
Продолжительность: 02:11:35
Слоган: «Их прошлое. Наше будущее."
Перевод 1: Профессиональный (дублированный) CPIG | BD CEE
Перевод 2: Авторский (одноголосый, закадровый) Ю.Живов
Перевод 3: Одноголосый, закадровый, В.Белов
Перевод 4: Профессиональный (дублированный) | BD CEE
Субтитры: русские (форсированные, полные), украинские (форсированные, полные), английские (форсированные, полные, SDH)
Оригинальная аудиодорожка: английский
Режиссер: Брайан Сингер / Bryan Singer
Сценарий: Саймон Кинберг, Джейн Голдман, Мэттью Вон, ...
В ролях: Джеймс МакЭвой, Майкл Фассбендер, Хью Джекман, Дженнифер Лоуренс, Николас Холт, Питер Динклэйдж, Иэн МакКеллен, Патрик Стюарт, Эллен Пейдж, Холли Берри и другие
Описание: В недалёком будущем мутанты близки к истреблению роботами-охотниками на мутантов Стражами. Единственная надежда для мутантов выжить — предотвратить череду роковых событий, приведших к появлению Стражей. С помощью своих способностей, Китти Прайд перемещает сознание Росомахи в его молодое тело в 1973 год. В прошлом всё оказывается не так радужно: молодой Профессор Икс окончательно разочарован в своих идеях, Магнето содержится в тюрьме глубоко под землёй, а человечество не знает как реагировать на широкое появление мутантов…
- зрителям, достигшим 12 лет

Доп. информация: За исходник взят Blu-ray Disk 1080p.
Сохранены оригинальные главы с Blu-ray Disk.
Дорожки DTS-HD MA пожаты до AC3@640kbps (Оригинал, Живов, Белов).
SCREENSHOTCOMPARISON

Посмотреть трейлер
Скачать сэмпл

Тип релиза: BDRip 720p | FRANKiE13
Контейнер: MKV
Видео: x.264 / 5 449 kbps / 1280x534 / 23,976 fps / 2.40:1 / High@L4.1
Аудио 01: RUS / DTS / 5.1 / 48 kHz / 768 kbps / CPIG
Аудио 02: RUS / AC3 / 5.1 / 48 kHz / 640 kbps / Ю.Живов
Аудио 03: RUS / AC3 / 5.1 / 48 kHz / 640 kbps / В.Белов
Аудио 04: UKR / AC3 / 5.1 / 48 kHz / 448 kbps / Дубляж
Аудио 05: ENG / AC3 / 5.1 / 48 kHz / 640 kbps / Оригинал
Формат субтитров: SoftSub (.srt)
Код:
Код: Выделить всё
General
Format                                   : Matroska
Format version                           : Version 4 / Version 2
File size                                : 7.89 GiB
Duration                                 : 2 h 11 min
Overall bit rate                         : 8 589 kb/s
Movie name                               : X-Men: Days of Future Past (2014) FRANKiE13
Encoded date                             : UTC 2017-07-01 18:50:48
Writing application                      : mkvmerge v9.9.0 ('Pick Up') 64bit
Writing library                          : libebml v1.3.4 + libmatroska v1.4.5
Cover                                    : Yes
Attachments                              : cover
Video
ID                                       : 1
Format                                   : AVC
Format/Info                              : Advanced Video Codec
Format profile                           : High@L4.1
Format settings, CABAC                   : Yes
Format settings, ReFrames                : 12 frames
Codec ID                                 : V_MPEG4/ISO/AVC
Duration                                 : 2 h 11 min
Bit rate                                 : 5 449 kb/s
Width                                    : 1 280 pixels
Height                                   : 534 pixels
Display aspect ratio                     : 2.40:1
Frame rate mode                          : Constant
Frame rate                               : 23.976 (24000/1001) FPS
Color space                              : YUV
Chroma subsampling                       : 4:2:0
Bit depth                                : 8 bits
Scan type                                : Progressive
Bits/(Pixel*Frame)                       : 0.332
Stream size                              : 5.01 GiB (63%)
Title                                    : X-Men: Days of Future Past 2014 - Encoded by FRANKiE13
Writing library                          : x264 core 148 r2744 b97ae06
Encoding settings                        : cabac=1 / ref=12 / deblock=1:-3:-3 / analyse=0x3:0x133 / me=umh / subme=11 / psy=1 / psy_rd=1.00:0.15 / mixed_ref=1 / me_range=48 / chroma_me=1 / trellis=2 / 8x8dct=1 / cqm=0 / deadzone=21,11 / fast_pskip=1 / chroma_qp_offset=-3 / threads=16 / lookahead_threads=4 / sliced_threads=0 / nr=0 / decimate=1 / interlaced=0 / bluray_compat=0 / constrained_intra=0 / bframes=11 / b_pyramid=2 / b_adapt=2 / b_bias=0 / direct=3 / weightb=1 / open_gop=0 / weightp=2 / keyint=240 / keyint_min=23 / scenecut=40 / intra_refresh=0 / rc_lookahead=60 / rc=2pass / mbtree=0 / bitrate=5449 / ratetol=1.0 / qcomp=0.60 / qpmin=10 / qpmax=51 / qpstep=4 / cplxblur=20.0 / qblur=0.5 / vbv_maxrate=50000 / vbv_bufsize=62500 / nal_hrd=none / filler=0 / ip_ratio=1.40 / pb_ratio=1.30 / aq=1:0.80
Language                                 : English
Default                                  : Yes
Forced                                   : No
Audio #1
ID                                       : 2
Format                                   : DTS
Format/Info                              : Digital Theater Systems
Mode                                     : 16
Format settings, Endianness              : Big
Codec ID                                 : A_DTS
Duration                                 : 2 h 11 min
Bit rate mode                            : Constant
Bit rate                                 : 768 kb/s
Channel(s)                               : 6 channels
Channel positions                        : Front: L C R, Side: L R, LFE
Sampling rate                            : 48.0 kHz
Frame rate                               : 93.750 FPS (512 spf)
Bit depth                                : 24 bits
Compression mode                         : Lossy
Stream size                              : 723 MiB (9%)
Title                                    : Профессиональный дублированный, CPIG / BD CEE
Language                                 : Russian
Default                                  : Yes
Forced                                   : No
Audio #2
ID                                       : 3
Format                                   : AC-3
Format/Info                              : Audio Coding 3
Format settings, Endianness              : Big
Codec ID                                 : A_AC3
Duration                                 : 2 h 11 min
Bit rate mode                            : Constant
Bit rate                                 : 640 kb/s
Channel(s)                               : 6 channels
Channel positions                        : Front: L C R, Side: L R, LFE
Sampling rate                            : 48.0 kHz
Frame rate                               : 31.250 FPS (1536 spf)
Bit depth                                : 16 bits
Compression mode                         : Lossy
Stream size                              : 602 MiB (7%)
Title                                    : Одноголосый закадровый, Ю.Живов
Language                                 : Russian
Service kind                             : Complete Main
Default                                  : No
Forced                                   : No
Audio #3
ID                                       : 4
Format                                   : AC-3
Format/Info                              : Audio Coding 3
Format settings, Endianness              : Big
Codec ID                                 : A_AC3
Duration                                 : 2 h 11 min
Bit rate mode                            : Constant
Bit rate                                 : 640 kb/s
Channel(s)                               : 6 channels
Channel positions                        : Front: L C R, Side: L R, LFE
Sampling rate                            : 48.0 kHz
Frame rate                               : 31.250 FPS (1536 spf)
Bit depth                                : 16 bits
Compression mode                         : Lossy
Stream size                              : 602 MiB (7%)
Title                                    : Одноголосый закадровый, В.Белов
Language                                 : Russian
Service kind                             : Complete Main
Default                                  : No
Forced                                   : No
Audio #4
ID                                       : 5
Format                                   : AC-3
Format/Info                              : Audio Coding 3
Format settings, Endianness              : Big
Codec ID                                 : A_AC3
Duration                                 : 2 h 11 min
Bit rate mode                            : Constant
Bit rate                                 : 448 kb/s
Channel(s)                               : 6 channels
Channel positions                        : Front: L C R, Side: L R, LFE
Sampling rate                            : 48.0 kHz
Frame rate                               : 31.250 FPS (1536 spf)
Bit depth                                : 16 bits
Compression mode                         : Lossy
Stream size                              : 422 MiB (5%)
Title                                    : Профессиональный дублированный / BD CEE
Language                                 : Ukrainian
Service kind                             : Complete Main
Default                                  : No
Forced                                   : No
Audio #5
ID                                       : 6
Format                                   : AC-3
Format/Info                              : Audio Coding 3
Format settings, Endianness              : Big
Codec ID                                 : A_AC3
Duration                                 : 2 h 11 min
Bit rate mode                            : Constant
Bit rate                                 : 640 kb/s
Channel(s)                               : 6 channels
Channel positions                        : Front: L C R, Side: L R, LFE
Sampling rate                            : 48.0 kHz
Frame rate                               : 31.250 FPS (1536 spf)
Bit depth                                : 16 bits
Compression mode                         : Lossy
Stream size                              : 602 MiB (7%)
Title                                    : Оригинал / BD CEE
Language                                 : English
Service kind                             : Complete Main
Default                                  : No
Forced                                   : No
Text #1
ID                                       : 7
Format                                   : UTF-8
Codec ID                                 : S_TEXT/UTF8
Codec ID/Info                            : UTF-8 Plain Text
Duration                                 : 1 h 30 min
Bit rate                                 : 1 b/s
Count of elements                        : 32
Stream size                              : 1.31 KiB (0%)
Title                                    : Forced
Language                                 : Russian
Default                                  : Yes
Forced                                   : No
Text #2
ID                                       : 8
Format                                   : UTF-8
Codec ID                                 : S_TEXT/UTF8
Codec ID/Info                            : UTF-8 Plain Text
Duration                                 : 2 h 1 min
Bit rate                                 : 73 b/s
Count of elements                        : 1313
Stream size                              : 65.1 KiB (0%)
Title                                    : Full
Language                                 : Russian
Default                                  : No
Forced                                   : No
Text #3
ID                                       : 9
Format                                   : UTF-8
Codec ID                                 : S_TEXT/UTF8
Codec ID/Info                            : UTF-8 Plain Text
Duration                                 : 2 h 2 min
Bit rate                                 : 62 b/s
Count of elements                        : 1169
Stream size                              : 55.9 KiB (0%)
Title                                    : Full
Language                                 : Russian
Default                                  : No
Forced                                   : No
Text #4
ID                                       : 10
Format                                   : UTF-8
Codec ID                                 : S_TEXT/UTF8
Codec ID/Info                            : UTF-8 Plain Text
Duration                                 : 1 h 30 min
Bit rate                                 : 1 b/s
Count of elements                        : 32
Stream size                              : 1.19 KiB (0%)
Title                                    : Forced
Language                                 : Ukrainian
Default                                  : No
Forced                                   : No
Text #5
ID                                       : 11
Format                                   : UTF-8
Codec ID                                 : S_TEXT/UTF8
Codec ID/Info                            : UTF-8 Plain Text
Duration                                 : 2 h 1 min
Bit rate                                 : 73 b/s
Count of elements                        : 1312
Stream size                              : 65.3 KiB (0%)
Title                                    : Full
Language                                 : Ukrainian
Default                                  : No
Forced                                   : No
Text #6
ID                                       : 12
Format                                   : UTF-8
Codec ID                                 : S_TEXT/UTF8
Codec ID/Info                            : UTF-8 Plain Text
Duration                                 : 17 min 56 s
Bit rate                                 : 5 b/s
Count of elements                        : 24
Stream size                              : 700 Bytes (0%)
Title                                    : Forced
Language                                 : English
Default                                  : No
Forced                                   : No
Text #7
ID                                       : 13
Format                                   : UTF-8
Codec ID                                 : S_TEXT/UTF8
Codec ID/Info                            : UTF-8 Plain Text
Duration                                 : 2 h 1 min
Bit rate                                 : 45 b/s
Count of elements                        : 1400
Stream size                              : 40.0 KiB (0%)
Title                                    : Full
Language                                 : English
Default                                  : No
Forced                                   : No
Text #8
ID                                       : 14
Format                                   : UTF-8
Codec ID                                 : S_TEXT/UTF8
Codec ID/Info                            : UTF-8 Plain Text
Duration                                 : 2 h 9 min
Bit rate                                 : 48 b/s
Count of elements                        : 1707
Stream size                              : 46.0 KiB (0%)
Title                                    : Full SDH
Language                                 : English
Default                                  : No
Forced                                   : No
Menu
00:00:00.000                             : :Chapter 1
00:03:33.338                             : :Chapter 2
00:08:00.689                             : :Chapter 3
00:10:28.628                             : :Chapter 4
00:13:58.046                             : :Chapter 5
00:17:02.021                             : :Chapter 6
00:20:16.090                             : :Chapter 7
00:22:11.330                             : :Chapter 8
00:26:37.888                             : :Chapter 9
00:30:32.039                             : :Chapter 10
00:34:29.776                             : :Chapter 11
00:36:00.992                             : :Chapter 12
00:38:18.087                             : :Chapter 13
00:40:37.101                             : :Chapter 14
00:45:53.793                             : :Chapter 15
00:48:53.848                             : :Chapter 16
00:51:58.157                             : :Chapter 17
00:54:43.113                             : :Chapter 18
00:57:51.426                             : :Chapter 19
01:00:48.186                             : :Chapter 20
01:03:26.594                             : :Chapter 21
01:07:09.567                             : :Chapter 22
01:09:43.596                             : :Chapter 23
01:13:11.470                             : :Chapter 24
01:15:31.861                             : :Chapter 25
01:17:27.726                             : :Chapter 26
01:19:30.099                             : :Chapter 27
01:24:50.711                             : :Chapter 28
01:26:58.255                             : :Chapter 29
01:31:04.250                             : :Chapter 30
01:34:03.680                             : :Chapter 31
01:37:33.181                             : :Chapter 32
01:41:54.817                             : :Chapter 33
01:44:52.995                             : :Chapter 34
01:47:19.808                             : :Chapter 35
01:51:29.766                             : :Chapter 36
01:56:42.746                             : :Chapter 37
02:00:12.414                             : :Chapter 38
02:02:34.973                             : :Chapter 39
02:10:31.907                             : :Chapter 40

Source vs Encode










Source vs FRANKiE13 vs WiKi



Были сняты сцены любовной линии между Росомахой и Шторм, но из фильма их вырезали.
По словам Брайана Сингера, у него была двухчасовая дискуссия с Джеймсом Кэмероном, поставившим два фильма о перемещениях во времени («Терминатор» и «Терминатор 2: Судный день»). Режиссёры обсуждали, какая концепция перемещений во времени наиболее правдоподобна и будет работать в рамках фильма.
Тема с перемещениями во времени из сюжетной линии комикса «X-men: Days of Future Past» была выбрана за основу фильма, чтобы свести две истории в одну: закрыть сюжетную линию оригинальной трилогии и продолжить работать с сюжетом фильма «Люди Икс: Первый класс».
Патрик Стюарт и Иэн МакКеллен были на гастролях с постановкой «В ожидании Годо», когда Брайан Сингер связался с актерами и предложил им исполнить роли Профессора Икс и Магнето. По словам МакКеллена, оба актера были потрясены этим предложением. Они были уверены в том, что их роли прочно закрепились за Джеймсом МакЭвоем и Майклом Фассбендером, и что они уже никогда не вернутся к этим персонажам.
Когда Эван Питерс был взят на роль Ртути, это событие вызвало большую дискуссию в связи с появлением этого же персонажа в фильме «Мстители: Эра Альтрона» (2015). Ранее обсуждалось присутствие Ртути в фильмах «Люди Икс: Последняя битва» (2006) и «Мстители» (2012), но, из-за сложностей с правами на этого персонажа, он так и не появился в этих фильмах. В мае 2013-го года студии Marvel и Fox Studio урегулировали все правовые вопросы, и было решено, что Ртуть появится и в фильме «Мстители: Эра Альтрона» (2015) и в «Люди Икс: Дни минувшего будущего» (2014) с небольшим условием: в «Мстителях» не должно быть никаких упоминаний того, что этот персонаж имеет отношение к Людям-Икс и Магнето (отец персонажа), а в «Людях-Икс» не должно быть упоминаний того, что Ртуть имеет отношение к Мстителям, также этот персонаж не может упоминаться как мутант ни в одном из фильмов Marvel.
Брайан Сингер снимал сцены с мутантом Ртутью в необычном формате — 3600 кадров в секунду. Это было сделано для того, чтобы продемонстрировать «скоростные» способности Ртути. Благодаря такой съемке этот персонаж в фильме будет передвигаться в 150 раз быстрее обычных персонажей.
В оригинальном комиксе «Дни минувшего будущего» (Days of Future past) упоминается путешествие во времени из 2013-го года, в этом же году начались съемки фильма.
Крис Клэрмонт, автор оригинального комикса «Дни минувшего будущего» (Days of Future past), выступил в этом проекте в роли консультанта.
Это четвертый фильм, основанный на комиксе Криса Клэрмонта из серии «Люди Икс»:
«Люди Икс 2» (2003) был снят по комиксу «Бог любит, человек убивает» (God Loves, Man Kills);
«Люди Икс: Последняя битва» (2006) был снят по комиксу «Сага Темного Феникса» (The Dark Phoenix Saga);
«Росомаха: Бессмертный» (2013) был снят по одноименному комиксу.
Мэттью Вон значился режиссёром фильма с самого момента объявления проекта. Однако, когда фильм вышел на финальную стадию пре-продакшена, неожиданно переключился на другой проект и его работу подхватил Брайан Сингер (по большей степени потому, что занимался постановкой двух первых фильмов франшизы), внеся свою лепту в написание сценария.
Специально для съемок фильма была построена модель робота Стража в натуральную величину.
После выхода трейлера к фильму режиссер Брайан Сингер сделал беспрецедентный шаг, выпустив на следующий день тот же ролик, но уже со своими комментариями, объясняя значение тех или иных сцен, чтобы дать более полное представление для зрителей о том, чего ожидать от фильма.
Джейми Кэмпбелл Бауэр и Нико Торторелла проходили прослушивание на роль Ртути.
Во время исполнения роли Мистик в этом фильме Дженнифер Лоуренс носила специальный костюм. В фильме «Люди Икс: Первый класс» (2011) ей наносили грим на все тело, но этот вариант был очень неудобным.
В этом фильме Брайан Сингер взял теорию струн за основу для путешествий во времени.
Роль Шторм в сценарии была заметно больше, чем в фильме, однако беременность Холли Берри стала слишком заметна и ее роль была сильно урезана.
Хотя действие фильма развивается в России, США, Франции, Вьетнаме и Китае, фильм был целиком снят в Квебеке (Канада).
На футболке у Ртути изображение с обложки самого известного альбома группы Pink Floyd — «The Dark Side of The Moon».
На 90-й минуте, когда Хэнк рассуждает о неизменности времени, на одном из экранов показывают кадры из оригинального сериала «Звездный путь» (1966-1969). Патрик Стюарт играл капитана корабля в сериале «Звездный путь: Следующее поколение» (1987-1994), а также в ряде других фильмов серии.
Сцены «будущего» происходят в 2023 году, «прошлого» в 1973.
Были сняты сцены любовной линии между Росомахой и Шторм, но из фильма их вырезали.
В фильме планировалось появление Дэдпула, но его удалили из сценария. Создатели это аргументировали и без того огромным количеством персонажей.
Главный злодей фильма — Доктор Траск появлялся еще в части «Люди Икс: Последняя битва» и его роль исполнял афроамериканец. Это можно считать нестыковкой, поскольку эти два фильма происходят в одной временной линии.
Внимание! Дальнейший список фактов о фильме содержит спойлеры. Будьте осторожны.
В фильме «Росомаха: Бессмертный» (2013) Росомаха лишился своих адамантиевых когтей в битве в конце фильма. Между тем, в сценах будущего мы можем наблюдать эти самые когти. Росомаха не был рождён с адамантиевым скелетом, и поэтому адамантиевые когти не могли регенерировать, на их месте должны были быть костяные (как и в прошлом). У Брайана Сингера на этот вопрос нашелся очень простой ответ: Магнето. Режиссер рассказал, что в тот момент отношения Росомахи и Магнето носили не вражеский характер, поэтому он вполне мог помочь ему и… нарастить когти из имеющегося в теле Логана адамантия.
Когда Мэттью Вон собирался возглавить проект, он хотел сделать прямое продолжение фильма «Люди Икс: Первый класс» (2011), в котором события развивались бы в 1970-х. Среди его идей была открывающая сцена с убийством Кеннеди по вине Магнето, и столкновения мутантов, в период движения за гражданские права/войны во Вьетнаме.
Когда место режиссёра проекта занимал Мэттью Вон, в фильм должен был вернуться Азазель в исполнении Джейсона Флеминга. Брайан Сингер решил, что Азазель будет лишним в фильме и Мистик видит указание о его смерти в архивах Trask Industries, а Магнето упоминает о его смерти во время спора с Чарльзом Ксавьером.
Пулевые ранения, которые появляются на груди Росомахи по прибытии в 1970-е имеют вид Большой Медведицы. Это дань уважения манге «Кулак Полярной звезды» (Hokuto no Ken), главный персонаж которой имел такой же шрам на груди.
В оригинальном комиксе в прошлое отправлялась Призрачная кошка, в фильме это Росомаха. Создатели фильма объяснили это тем, что перемещение во времени на большой период времени может нанести сильные повреждения мозгу, а Росомаха, способный к регенерации — единственный, кто может это пережить.
[*]Когда Чарльз Ксавьер рассказывает Логану о причине, по которой Магнето попал в тюрьму за убийство, он упоминает пулю, которая «вильнула». Примечательно, что сыгравший Ксавьера Джеймс МакЭвой ранее сыграл главную роль в фильме «Особо опасен» (2008), где обладал способностью заставить пулю «вильнуть» при выстреле.
 
Не забывайте говорить Спасибо. Не уходите с раздачи!   
Торрент: Зарегистрирован [02 июл 2017, 22:30] Для скачивания .torrent
необходима регистрация
Или скачать с помощью
MediaGet
Статус:
Проверен
 
.torrent скачан: 0 раз
Хэш: b2e578cc6495b8567141301d0fea7c4d5c3a8ce1
Размер: 7.89 ГБ (8 476 292 539 байт)
Стать Автором раздачи
 
 
Раздал: 0 байт
Скачал: 0 байт
Ратио: Inf.
Сообщения: 487468
Зарегистрирован: 17 апр 2014, 13:57


  • Похожие торренты
    Ответы
    Просмотры
    Последнее сообщение

Вернуться в HD Video на модерации

Ресурс не предоставляет электронные версии произведений, а занимается лишь коллекционированием и каталогизацией ссылок, присылаемых и публикуемых на форуме нашими читателями. Если вы являетесь правообладателем какого-либо представленного материала и не желаете чтобы ссылка на него находилась в нашем каталоге, свяжитесь с нами и мы незамедлительно удалим её. Файлы для обмена на трекере предоставлены пользователями сайта, и администрация не несёт ответственности за их содержание. Просьба не заливать файлы, защищенные авторскими правами, а также файлы нелегального содержания!
cron