Сборник клипов - Philizz "Back To The 90s" (episode 2) (2017) WEB-DLRip [H.264/720p-LQ]

 
 Статистика раздачи 
Размер: 1.25 ГБ   |  Зарегистрирован: 01 июл 2017, 08:52   |   .torrent скачан: 0 раз
Сидеров: 1  [ 0 байт/сек ]     Личеров: 0  [ 0 байт/сек ]  
  

Сборник клипов - Philizz "Back To The 90s" (episode 2) (2017) WEB-DLRip [H.264/720p-LQ]

Сообщение apple2000 » 01 июл 2017, 08:52

Сборник клипов - Philizz "Back To The 90s" (episode 2) (2017) WEB-DLRip [720p]

Исполнитель: Philizz
Название: "Back To The 90s" (episode 2)
Год выхода: 2017
Жанр: Pop, Club, Dance, Video-Megamix

Описание:
Сборник клипов "Back To The 90s" - фирменный видеомикс от голландского ви-джея Philizz. Вторая часть этой серии также посвящена музыке в стиле Rock Ballads, Reggae и R&B. Композиции этих стилей составляют данный сборник. Садитесь поудобней, расслабьтесь и наслаждайтесь спокойной и приятной музыкой 90-х!
- Разбивка по трекам отсутствует.

Продолжительность: 00:56:12
Качество видео: WEB-DLRip
Видео: MPEG-4 AVC, 1280х720p, 16:9, ~3 Mbps
Аудио: ААС, 2.0 ch, 48 kHz, 192-297 kbps

Треклист:
Savage Garden – Truly Madly Deeply
Katrina & the Waves - Love Shine A Light
Bob Marley ft. Lauryn Hill – Turn Your Lights Down Low
Michael Jackson – Will You Be There
Britney Spears - Born To Make You Happy
Macy Gray – Do Something
Puff Daddy ft. Jimmy Page – Come With Me
The Rapsody ft. Warren G & Sissel – Prince Igor
Queen – The Show Must Go On
Mr. Big – To Be With You
Anggun – Snow On The Sahara
Spice Girls – Viva Forever
Alanis Morissette – Ironic
Skunk Anansie – Secretly
Keith Sweat – Twisted
Madonna – The Power Of Goodbye
TLC – Waterfalls
The Fugees – Ready Or Not
Luniz – I Got 5 On It
TQ – Bye Bye Baby
Christina Aguilera - Genie in a Bottle
Touch & Go – Would You Go To Bed With Me
Ricky Martin – Livin’ La Vida Loca
Destiny's Child - Jumpin Jumpin
Coolio – C U When U Get There
Peter Andre – Mysterious Girl
Eminem – My Name Is
The Kelly Family – Fell In Love With An Alien
Usher – My Way
Oli P. – Flugzeuge Im Bauch
Lou Bega - Mambo no. 5
Michael Jackson - They don't care about us
Nas ft. Puff Daddy – Hate Me Now
Sasha – If You Believe
Enigma – Return To Innocence
East 17 – All Around The World
Emilia – Big Big World
Tic Tac Toe – Warum (Sample)
TLC – Unpretty
Celine Dion – It’s All Coming Back To Me Now
Toni Braxton – He Wasn’t Man Enough
Lutricia McNeal - Ain't that just the way
UB40 - Can't help Falling in Love
Inner Circle – Sweat (A La La La Long)
Ronan Keating – When You Say Nothing At All
Ten Sharp – You
Sweetbox – Everything’s Gonna Be Alright
Dido – Here With Me
N Sync – I Drive Myself Crazy
Oasis – Wonderwall
Blackstreet ft. Dr. Dre, Queen Pen – No Diggity
Joan Osborne – One Of Us
Red Hot Chili Peppers – Under The Bridge
All Saints – Under The Bridge
The Verve – Bitter Sweet Symphony
Wyclef Jean – Gone Till November
Eternal – What’Cha Gonna Do
Celine Dion – Pour Que Tu M’Aimes Encore
Ginuwine – When Doves Cry
George Michael ft. Mary J. Blige – As
TLC - No Scrubs
Alexia – Uh La La La
Flip Da Scrip – I Never Told You
En Vogue – Riddle
The Kelly Family – I Can’t Help Myself
Backstreet Boys – All I Have To Give
Spice Girls – Mama
Eternal – Angel Of Mine
All Saints – Bootie Call
Glamma Kid ft. Shola Ama – Taboo
2Pac – Do For Love
Lutricia McNeal - Someone loves you honey
Eternal – Don’t You Love Me
Beats International – Dub Be Good To Me
Destiny’s Child – No, No, No Part 2
Britney Spears - …Baby One More Time
Manau – La Tribu De Dana
Pappa Bear – When The Rain Begins To Fall
Vanessa Williams – Save The Best For Last
The Cover Girls – Wishing On A Star
Crash Test Dummies – Mmm Mmm Mmm Mmm
Nas – If I Ruled The World
2Pac ft. Dr.Dre – California Love
Blackstreet ft. Ol’ Dirty Bastard – Fix
Mark Morrison – Return Of The Mack
Shanice – I Love Your Smile
2 Brothers on the 4th Floor – One Day
Britney Spears – Sometimes
Tasmin Archer – Sleeping Satellite
702 - Where My Girls At
Natalie Imbruglia – Torn
Five – Everbody Get Up
Enigma – Sadeness Part I
SWV – Right Here
The Fugees - Killing Me Softly With His Song
Tarkan – Simarik
Skunk Anansie – Weak
Bloodhound Gang – Fire Water Burn
Alanis Morissette – Thank U
Five – Until The Time Is Through
Lauryn Hill – Everything Is Everything
Ace Of Base – The Sign
Ace Of Base - Life Is A Flower
Jennifer Lopez – If You Had My Love
Another Level – From The Heart
Celine Dion - That's the way it is
Melanie B ft. Missy Elliott – I Want You Back
4 The Cause – Stand By Me
Diana King – Shy Guy
Boyzone – No Matter What
Take That - Never Forget
The Rembrandts – I’ll Be There For You (Friends Themesong)
Код: Общее
Полное имя : Philizz Back to the 90s 2017 (episode 2) (720p).mp4
Формат : MPEG-4
Профиль формата : Base Media / Version 2
Идентификатор кодека : mp42 (mp42/mp41)
Размер файла : 1,25 Гбайт
Продолжительность : 56 м.
Режим общего битрейта : Переменный
Общий поток : 3189 Кбит/сек
Дата кодирования : UTC 2017-05-19 16:52:34
Дата пометки : UTC 2017-05-23 14:30:59
©TIM : 00:00:55:15
©TSC : 25
©TSZ : 1

Видео
Идентификатор : 1
Формат : AVC
Формат/Информация : Advanced Video Codec
Профиль формата :
Параметр CABAC формата : Да
Параметр ReFrames формата : 3 кадра
Идентификатор кодека : avc1
Идентификатор кодека/Информация : Advanced Video Coding
Продолжительность : 56 м.
Битрейт : 2992 Кбит/сек
Ширина : 1280 пикселей
Высота : 720 пикселей
Соотношение сторон : 16:9
Режим частоты кадров : Постоянный
Частота кадров : 25,000 кадров/сек
Стандарт вещания : PAL
Цветовое пространство : YUV
Субдискретизация насыщенности : 4:2:0
Битовая глубина : 8 бит
Тип развёртки : Прогрессивная
Бит/(Пиксели*Кадры) : 0.130
Размер потока : 1,17 Гбайт (94%)
Язык : English
Дата кодирования : UTC 2017-05-19 16:52:34
Дата пометки : UTC 2017-05-19 16:52:34
Цветовой диапазон : Limited

Аудио
Идентификатор : 2
Формат : AAC
Формат/Информация : Advanced Audio Codec
Профиль формата : LC
Идентификатор кодека : 40
Продолжительность : 56 м.
Продолжительность оригинала : 56 м.
Вид битрейта : Переменный
Битрейт : 192 Кбит/сек
Максимальный битрейт : 297 Кбит/сек
Каналы : 2 канала
Расположение каналов : Front: L R
Частота : 48,0 КГц
Частота кадров : 46,875 кадров/сек (1024 spf)
Метод сжатия : С потерями
Размер потока : 76,1 Мбайт (6%)
Размер потока оригинала : 76,1 Мбайт (6%)
Язык : English
Дата кодирования : UTC 2017-05-19 16:52:34
Дата пометки : UTC 2017-05-19 16:52:34

Скриншоты:



Время раздачи: 24/7
Приятного просмотра Philizz "Back To The 90s" (episode 2)

 
Не забывайте говорить Спасибо. Не уходите с раздачи!   
Торрент: Зарегистрирован [01 июл 2017, 08:52] Скачать торрент
Скачать торрент
[ Размер 13.4 КБ / Просмотров 28 ]
Статус:
Проверен
 
.torrent скачан: 0 раз
Хэш: 37333c5d962095b14e865d2670c6bebcb2475106
Размер: 1.25 ГБ (1 344 323 689 байт)
Стать Автором раздачи
 
 
Раздал: 0 байт
Скачал: 0 байт
Ратио: Inf.
Сообщения: 45370
Зарегистрирован: 05 окт 2014, 15:23


  • Похожие торренты
    Ответы
    Просмотры
    Последнее сообщение

Вернуться в Музыкальные клипы (транзит)

Ресурс не предоставляет электронные версии произведений, а занимается лишь коллекционированием и каталогизацией ссылок, присылаемых и публикуемых на форуме нашими читателями. Если вы являетесь правообладателем какого-либо представленного материала и не желаете чтобы ссылка на него находилась в нашем каталоге, свяжитесь с нами и мы незамедлительно удалим её. Файлы для обмена на трекере предоставлены пользователями сайта, и администрация не несёт ответственности за их содержание. Просьба не заливать файлы, защищенные авторскими правами, а также файлы нелегального содержания!