В.Г. Сурдин. Лекция «Второе восхождение к Луне» (2017) WEBRip [H.264] [MP4|1920x1080]

 
 Статистика раздачи 
Размер: 1.42 ГБ   |  Зарегистрирован: 30 июн 2017, 23:44   |   .torrent скачан: 0 раз
Сидеров: 1  [ 0 байт/сек ]     Личеров: 0  [ 0 байт/сек ]  
  

В.Г. Сурдин. Лекция «Второе восхождение к Луне» (2017) WEBRip [H.264] [MP4|1920x1080]

Сообщение apple2000 » 30 июн 2017, 23:44

В.Г. Сурдин. Лекция «Второе восхождение к Луне» (2017) WEBRip

Жанр: Лекция, Документальный

Ведущий: В.Г. Сурдин

Описание:
Лекция состоялась в рамках Фестиваля Увлекательной Науки-2017 22 апреля 2017 года.
В начале 1970-х, когда астронавты совершили первые экспедиции к Луне, закончилась героическая эпоха пилотируемой космонавтики. С тех пор люди не удалялись от земной поверхности более чем на несколько сотен километров. Какова перспектива пилотируемых экспедиций в далекий космос? Вернутся ли люди на Луну? Для чего человечеству нужна Луна? Каких открытий можно ожидать от новых экспедиций? Точно ответить на эти вопросы сегодня не сможет никто. Но обсудить их очень интересно и полезно.

Продолжительность: 01:17:48
Качество видео: WEBRip

Видео: AVC/H.264, 1920x1080 (16:9), ~2484 Кбит/сек
Аудио: AAC, 2 ch, 126 Кбит/сек
Код: Выделить всё
Формат                                   : MPEG-4
Профиль формата                          : Base Media
Идентификатор кодека                     : isom (isom/iso2/avc1/mp41)
Размер файла                             : 1,42 Гбайт
Продолжительность                        : 1 ч. 17 м.
Режим общего битрейта                    : Переменный
Общий поток                              : 2613 Кбит/сек
Дата кодирования                         : UTC 2017-06-02 05:32:09
Дата пометки                             : UTC 2017-06-02 05:32:09

Видео
Идентификатор                            : 1
Формат                                   : AVC
Формат/Информация                        : Advanced Video Codec
Профиль формата                          : High@L4
Параметр CABAC формата                   : Да
Параметр ReFrames формата                : 2 кадра
Идентификатор кодека                     : avc1
Идентификатор кодека/Информация          : Advanced Video Coding
Продолжительность                        : 1 ч. 17 м.
Битрейт                                  : 2484 Кбит/сек
Ширина                                   : 1920 пикселей
Высота                                   : 1080 пикселей
Соотношение сторон                       : 16:9
Режим частоты кадров                     : Постоянный
Частота кадров                           : 25,000 кадров/сек
Цветовое пространство                    : YUV
Субдискретизация насыщенности            : 4:2:0
Битовая глубина                          : 8 бит
Тип развёртки                            : Прогрессивная
Бит/(Пиксели*Кадры)                      : 0.048
Размер потока                            : 1,35 Гбайт (95%)
Дата кодирования                         : UTC 2017-06-02 05:32:09
Дата пометки                             : UTC 2017-06-02 05:32:09
Цветовой диапазон                        : Limited
Основные цвета                           : BT.709
Характеристики трансфера                 : BT.709
Коэффициенты матрицы                     : BT.709

Аудио
Идентификатор                            : 2
Формат                                   : AAC
Формат/Информация                        : Advanced Audio Codec
Профиль формата                          : LC
Идентификатор кодека                     : 40
Продолжительность                        : 1 ч. 17 м.
Вид битрейта                             : Переменный
Битрейт                                  : 126 Кбит/сек
Каналы                                   : 2 канала
Расположение каналов                     : Front: L R
Частота                                  : 44,1 КГц
Частота кадров                           : 43,066 кадра/сек (1024 spf)
Метод сжатия                             : С потерями
Размер потока                            : 69,9 Мбайт (5%)
Default                                  : Да
Alternate group                          : 1
Владимир Георгиевич Сурдин — ученый-астрофизик, профессор МГУ, кандидат физико-математических наук, старший научный сотрудник Государственного астрономического института им. П. К. Штернберга. Автор более 100 научных статей и десятков научно-популярных книг и статей. Автор дистанционных курсов по астрономии на порталах «Лекториум» и «Открытое образование». Лауреат премии «Просветитель» в 2012 году — за книгу «Разведка далеких планет».

Скриншоты:




Время раздачи:
по возможности (до появления первых 3-5 скачавших)
 
Не забывайте говорить Спасибо. Не уходите с раздачи!   
Торрент: Зарегистрирован [30 июн 2017, 23:44] Для скачивания .torrent
необходима регистрация
Или скачать с помощью
MediaGet
Статус:
Проверен
 
.torrent скачан: 0 раз
Хэш: e4744aa73dcee59ae615c1ee7dc8c8297ba3c275
Размер: 1.42 ГБ (1 524 804 911 байт)
Стать Автором раздачи
 
 
Раздал: 0 байт
Скачал: 0 байт
Ратио: Inf.
Сообщения: 28228
Зарегистрирован: 05 окт 2014, 15:23


  • Похожие торренты
    Ответы
    Просмотры
    Последнее сообщение

Вернуться в Видео для мобильных устройств

Ресурс не предоставляет электронные версии произведений, а занимается лишь коллекционированием и каталогизацией ссылок, присылаемых и публикуемых на форуме нашими читателями. Если вы являетесь правообладателем какого-либо представленного материала и не желаете чтобы ссылка на него находилась в нашем каталоге, свяжитесь с нами и мы незамедлительно удалим её. Файлы для обмена на трекере предоставлены пользователями сайта, и администрация не несёт ответственности за их содержание. Просьба не заливать файлы, защищенные авторскими правами, а также файлы нелегального содержания!