Рыба массового поражения / Poisson: elevage en eaux troubles (2014) SatRip [H.264/720]

 
 Статистика раздачи 
Размер: 801.76 МБ   |  Зарегистрирован: 30 июн 2017, 23:37   |   .torrent скачан: 0 раз
Сидеров: 1  [ 0 байт/сек ]     Личеров: 0  [ 0 байт/сек ]  
  

Рыба массового поражения / Poisson: elevage en eaux troubles (2014) SatRip [H.264/720]

Сообщение apple2000 » 30 июн 2017, 23:37

Рыба массового поражения / Poisson: élevage en eaux troubles (2014) SatRip [H.264/720]

Телекомпания: RT
Жанр: Документальный, Телепередача

Описание:
Рыба - основа здорового питания, рекомендуемая врачами и диетологами. Но она в прямом смысле таит в себе много неприятных сюрпризов, зачастую оказываясь одним из самых токсичных продуктов. На протяжении нескольких месяцев французские журналисты изучали рыбную индустрию, что называется, изнутри. Они проделали путь от Норвегии до Вьетнама, побывали в Швеции и Дании. Результатом их расследования стал фильм, раскрывающий правду, которую пытается скрыть «рыбное лобби».

Продолжительность: 00:52:04
Качество видео: SatRip
Перевод: Многоголосый закадровый, профессиональный
Субтитры: Отсутствуют

Видео: avc1, 1280x720, ~1957 kbps
Аудио: AAC, 2 ch, 192 Kbps
Код: Выделить всё
Общее
Полное имя                               : D: \Рыба массового поражения.mp4
Формат                                   : MPEG-4
Профиль формата                          : Base Media / Version 2
Идентификатор кодека                     : mp42 (mp42/isom)
Размер файла                             : 802 Мбайт
Продолжительность                        : 52 м. 4 с.
Режим общего битрейта                    : Переменный
Общий поток                              : 2153 Кбит/сек
Дата кодирования                         : UTC 2014-08-27 09:10:02
Дата пометки                             : UTC 2014-08-27 09:10:02

Видео
Идентификатор                            : 2
Формат                                   : AVC
Формат/Информация                        : Advanced Video Codec
Профиль формата                          :
Параметр CABAC формата                   : Нет
Параметр ReFrames формата                : 3 кадра
Параметр GOP формата                     : M=1, N=15
Идентификатор кодека                     : avc1
Идентификатор кодека/Информация          : Advanced Video Coding
Продолжительность                        : 52 м. 4 с.
Вид битрейта                             : Переменный
Битрейт                                  : 1958 Кбит/сек
Максимальный битрейт                     : 2000 Кбит/сек
Ширина                                   : 1280 пикселей
Высота                                   : 720 пикселей
Соотношение сторон                       : 16:9
Режим частоты кадров                     : Постоянный
Частота кадров                           : 30,000 кадров/сек
Стандарт вещания                         : NTSC
Цветовое пространство                    : YUV
Субдискретизация насыщенности            : 4:2:0
Битовая глубина                          : 8 бит
Тип развёртки                            : Прогрессивная
Бит/(Пиксели*Кадры)                      : 0.071
Размер потока                            : 729 Мбайт (91%)
Язык                                     : English
Дата кодирования                         : UTC 2014-08-27 09:10:02
Дата пометки                             : UTC 2014-08-27 09:10:02
Цветовой диапазон                        : Limited

Аудио
Идентификатор                            : 1
Формат                                   : AAC
Формат/Информация                        : Advanced Audio Codec
Профиль формата                          : LC
Идентификатор кодека                     : 40
Продолжительность                        : 52 м. 4 с.
Вид битрейта                             : Постоянный
Битрейт                                  : 192 Кбит/сек
Каналы                                   :  channel0
Channel(s)_Original                      : 2 канала
Расположение каналов                     : Front: L R
Частота                                  : 48,0 КГц
Частота кадров                           : 46,875 кадров/сек (1024 spf)
Метод сжатия                             : С потерями
Размер потока                            : 71,5 Мбайт (9%)
Язык                                     : English
Дата кодирования                         : UTC 2014-08-27 09:10:02
Дата пометки                             : UTC 2014-08-27 09:10:02


Скриншоты:




Время раздачи: 24/7 (круглосуточно) (до появления первых 3-5 скачавших)
 
Не забывайте говорить Спасибо. Не уходите с раздачи!   
Торрент: Зарегистрирован [30 июн 2017, 23:37] Для скачивания .torrent
необходима регистрация
Или скачать с помощью
MediaGet
Статус:
Проверен
 
.torrent скачан: 0 раз
Хэш: 85f15c10726f73051049c7f5ea4f9374b9b3eaa0
Размер: 801.76 МБ (840 705 238 байт)
Стать Автором раздачи
 
 
Раздал: 0 байт
Скачал: 0 байт
Ратио: Inf.
Сообщения: 28228
Зарегистрирован: 05 окт 2014, 15:23


  • Похожие торренты
    Ответы
    Просмотры
    Последнее сообщение

Вернуться в Видео для мобильных устройств

Ресурс не предоставляет электронные версии произведений, а занимается лишь коллекционированием и каталогизацией ссылок, присылаемых и публикуемых на форуме нашими читателями. Если вы являетесь правообладателем какого-либо представленного материала и не желаете чтобы ссылка на него находилась в нашем каталоге, свяжитесь с нами и мы незамедлительно удалим её. Файлы для обмена на трекере предоставлены пользователями сайта, и администрация не несёт ответственности за их содержание. Просьба не заливать файлы, защищенные авторскими правами, а также файлы нелегального содержания!