Проповедник / Пастырь / Preacher (2016) WEB-DL [H.264] (Сезон 1, серии 1-10 из 10) LostFilm [MP4|1280x718] [AD]

 
 Статистика раздачи 
Размер: 14.07 ГБ   |  Зарегистрирован: 30 июн 2017, 23:32   |   .torrent скачан: 0 раз
Сидеров: 1  [ 0 байт/сек ]     Личеров: 0  [ 0 байт/сек ]  
  

Проповедник / Пастырь / Preacher (2016) WEB-DL [H.264] (Сезон 1, серии 1-10 из 10) LostFilm [MP4|1280x718] [AD]

Сообщение apple2000 » 30 июн 2017, 23:33

Проповедник / Пастырь / Preacher (2016) WEB-DL (Сезон 1, серии 1-10 из 10) LostFilm
«Powerful AF»

Производство: США / AMC Studios
Жанр: Фэнтези, Драма, Детектив, Приключения

Режиссер: Эван Голдберг, Сет Роген, Майкл Словис
Актеры: Доминик Купер, Джозеф Гилган, Рут Негга, Люси Гриффитс, У. Эрл Браун, Том Брук, Анатол Юсеф, Йен Коллетти, Дерек Уилсон, Джеки Эрл Хейли

Описание:
Священник Джесси Кастер по воле случая стал носителем внутри своего естества странного существа по имени Генезис. Это дитя совокупления ангела и демона представляет собой одновременно чистый идеал и квинтэссенцию света, но также сгусток абсолютного зла. Генезис — единственное существо во Вселенной, которое может встать вровень с Богом, если того пожелает, а его носитель автоматически становится самым могущественным существом в материальном мире. И это проповедник Кастер.


Продолжительность: ~ 00:49:00 серия (01:04:48 первая серия)
Качество видео: WEB-DL 720p
Перевод: Многоголосый закадровый, профессиональный - LostFilm
Реклама: присутствует заставка и логотип LostFilm

Видео: AVC/H.264, 1280x718 (16:9), ~4000 kbps
Аудио: AAC, 2 ch, 276 kbps - русский (MVO)
Код: Выделить всё
General
Complete name               : D:\NNMClub\Пастырь (сезон 1) Preacher (2016).WEB-DL.720p.LostFilm\Preacher.S01E08.720p.WEB.rus.LostFilm.TV.mp4
Format                      : MPEG-4
Format profile              : Base Media
Codec ID                    : isom (isom)
File size                   : 1.26 GiB
Duration                    : 42 min 18 s
Overall bit rate mode       : Variable
Overall bit rate            : 4 264 kb/s
Collection                  : Пастырь
Season                      : 1
Album                       : Пастырь, Сезон 1
Album/Performer             : Пастырь
Part                        : 8
Part/Position               : 1
Track name                  : Эль Валеро
Track name/Position         : 8
Performer                   : Пастырь
Genre                       : Drama
ContentType                 : TV Show
Recorded date               : 2016
Encoded date                : UTC 2016-07-24 18:15:29
Tagged date                 : UTC 2016-07-24 18:15:29
Writing application         : LostCoder
Copyright                   : LostFilm.TV (c)
Cover                       : Yes
Comment                     : Джесси Кастер — проповедник. Он вернулся в родной Энвиль, штат Техас, дабы наставлять местное население на путь истинный. Но грешников здесь оказалось слишком много. Неизвестно, чем все закончилось, если бы в пастыря не вселилась неведомая сущность.
Part_ID                     : 108
rati                        : (Binary)

Video
ID                          : 1
Format                      : AVC
Format/Info                 : Advanced Video Codec
Format profile              :
Format settings, CABAC      : No
Format settings, ReFrames   : 4 frames
Codec ID                    : avc1
Codec ID/Info               : Advanced Video Coding
Duration                    : 42 min 18 s
Bit rate                    : 4 000 kb/s
Maximum bit rate            : 6 184 kb/s
Width                       : 1 280 pixels
Height                      : 720 pixels
Display aspect ratio        : 16:9
Frame rate mode             : Constant
Frame rate                  : 23.976 (24000/1001) FPS
Original frame rate         : 23.976 (23976/1000) FPS
Color space                 : YUV
Chroma subsampling          : 4:2:0
Bit depth                   : 8 bits
Scan type                   : Progressive
Bits/(Pixel*Frame)          : 0.181
Stream size                 : 1.18 GiB (93%)
Title                       : Imported with GPAC 0.4.6-DEV (internal rev. 5)
Writing library             : x264 core 112 r1834 a51816a
Encoding settings           : cabac=0 / ref=3 / deblock=1:0:0 / analyse=0x3:0x113 / me=hex / subme=7 / psy=1 / psy_rd=1.00:0.00 / mixed_ref=1 / me_range=16 / chroma_me=1 / trellis=1 / 8x8dct=1 / cqm=0 / deadzone=21,11 / fast_pskip=1 / chroma_qp_offset=-2 / threads=12 / sliced_threads=0 / nr=0 / decimate=1 / interlaced=0 / constrained_intra=0 / bframes=4 / b_pyramid=2 / b_adapt=1 / b_bias=0 / direct=1 / weightb=1 / open_gop=0 / weightp=2 / keyint=250 / keyint_min=25 / scenecut=40 / intra_refresh=0 / rc_lookahead=40 / rc=2pass / mbtree=1 / bitrate=4000 / ratetol=1.0 / qcomp=0.60 / qpmin=0 / qpmax=51 / qpstep=4 / cplxblur=20.0 / qblur=0.5 / vbv_maxrate=5000 / vbv_bufsize=2000 / ip_ratio=1.40 / aq=1:1.00 / nal_hrd=none
Encoded date                : UTC 2016-07-19 12:05:06
Tagged date                 : UTC 2016-07-24 18:15:53

Audio
ID                          : 2
Format                      : AAC
Format/Info                 : Advanced Audio Codec
Format profile              : LC
Codec ID                    : 40
Duration                    : 42 min 18 s
Bit rate mode               : Variable
Bit rate                    : 276 kb/s
Maximum bit rate            : 345 kb/s
Channel(s)                  : 2 channels
Channel positions           : Front: L R
Sampling rate               : 48.0 kHz
Frame rate                  : 46.875 FPS (1024 spf)
Compression mode            : Lossy
Stream size                 : 83.7 MiB (6%)
Encoded date                : UTC 2016-07-24 18:15:51
Tagged date                 : UTC 2016-07-24 18:15:53
01. Pilot / Пилот
02. See / Узри
03. The Possibilities / Возможности
04. Monster Swamp / Паучья банка
05. South Will Rise Again / Юг снова встанет с колен
06. Sundowner / Закатный
07. He Gone / Исчез
08. El Valero / Эль Валеро
09. Finish the Song / Допой свою песню
10. Call and Response / Звонок и ответ

Скриншоты:




Время раздачи: Круглосуточно, до первых 5-и скачавших
 
Не забывайте говорить Спасибо. Не уходите с раздачи!   
Торрент: Зарегистрирован [30 июн 2017, 23:32] Для скачивания .torrent
необходима регистрация
Или скачать с помощью
MediaGet
Статус:
Проверен
 
.torrent скачан: 0 раз
Хэш: e07d58e1aae0d0e7c4a8d9f2d11af0c8ffdc6939
Размер: 14.07 ГБ (15 105 739 044 байт)
Стать Автором раздачи
 
 
Раздал: 0 байт
Скачал: 0 байт
Ратио: Inf.
Сообщения: 28228
Зарегистрирован: 05 окт 2014, 15:23


  • Похожие торренты
    Ответы
    Просмотры
    Последнее сообщение

Вернуться в Видео для мобильных устройств

Ресурс не предоставляет электронные версии произведений, а занимается лишь коллекционированием и каталогизацией ссылок, присылаемых и публикуемых на форуме нашими читателями. Если вы являетесь правообладателем какого-либо представленного материала и не желаете чтобы ссылка на него находилась в нашем каталоге, свяжитесь с нами и мы незамедлительно удалим её. Файлы для обмена на трекере предоставлены пользователями сайта, и администрация не несёт ответственности за их содержание. Просьба не заливать файлы, защищенные авторскими правами, а также файлы нелегального содержания!