Г.Н. Дрёмова. Лекция «Сверхскоростные звезды» (2017) WEBRip [H.264] [MP4|1920x1080]

 
 Статистика раздачи 
Размер: 845.52 МБ   |  Зарегистрирован: 26 июн 2017, 23:35   |   .torrent скачан: 0 раз
Сидеров: 1  [ 0 байт/сек ]     Личеров: 0  [ 0 байт/сек ]  
  

Г.Н. Дрёмова. Лекция «Сверхскоростные звезды» (2017) WEBRip [H.264] [MP4|1920x1080]

Сообщение apple2000 » 26 июн 2017, 23:35

Г.Н. Дрёмова. Лекция «Сверхскоростные звезды» (2017) WEBRip

Жанр: Лекция, Документальный

Ведущий: Г.Н. Дрёмова

Описание:
В лекции обсуждается широкий спектр возможных сценариев, объясняющих происхождение сверхскоростных объектов при участии черных дыр разных масс, двойных сверхмассивных черных дыр, в результате взрывов сверхновых в тесных двойных системах, а также итогом динамической нестабильности звездных скоплений. Участники лекции познакомятся с современным представлением о релятивистском пределе кинематической аномальности. До недавнего времени обладателями таких скоростей считались объекты микромира: фотоны, нейтрино, релятивистские электроны и т.д. Современное численное моделирование предсказывает рождение релятивистских объектов макромира – звезд, движущихся со скоростью более 100 000 км/с.

Продолжительность: 01:26:08
Качество видео: WEBRip
Субтитры: отсутствуют

Видео: AVC/H.264, 1920x1080 (16:9), ~1244 Кбит/сек
Аудио: AAC, 2 ch, 126 Кбит/сек
Код: Выделить всё
Формат                                   : MPEG-4
Профиль формата                          : Base Media
Идентификатор кодека                     : isom (isom/iso2/avc1/mp41)
Размер файла                             : 846 Мбайт
Продолжительность                        : 1 ч. 26 м.
Режим общего битрейта                    : Переменный
Общий поток                              : 1372 Кбит/сек
Дата кодирования                         : UTC 2017-06-25 15:34:30
Дата пометки                             : UTC 2017-06-25 15:34:30

Видео
Идентификатор                            : 1
Формат                                   : AVC
Формат/Информация                        : Advanced Video Codec
Профиль формата                          : High@L4
Параметр CABAC формата                   : Да
Параметр ReFrames формата                : 3 кадра
Идентификатор кодека                     : avc1
Идентификатор кодека/Информация          : Advanced Video Coding
Продолжительность                        : 1 ч. 26 м.
Битрейт                                  : 1244 Кбит/сек
Ширина                                   : 1920 пикселей
Высота                                   : 1080 пикселей
Соотношение сторон                       : 16:9
Режим частоты кадров                     : Постоянный
Частота кадров                           : 25,000 кадров/сек
Цветовое пространство                    : YUV
Субдискретизация насыщенности            : 4:2:0
Битовая глубина                          : 8 бит
Тип развёртки                            : Прогрессивная
Бит/(Пиксели*Кадры)                      : 0.024
Размер потока                            : 766 Мбайт (91%)
Дата кодирования                         : UTC 2017-06-25 15:34:30
Дата пометки                             : UTC 2017-06-25 15:34:30
Цветовой диапазон                        : Limited
Основные цвета                           : BT.709
Характеристики трансфера                 : BT.709
Коэффициенты матрицы                     : BT.709

Аудио
Идентификатор                            : 2
Формат                                   : AAC
Формат/Информация                        : Advanced Audio Codec
Профиль формата                          : LC
Идентификатор кодека                     : 40
Продолжительность                        : 1 ч. 26 м.
Вид битрейта                             : Переменный
Битрейт                                  : 126 Кбит/сек
Каналы                                   : 2 канала
Расположение каналов                     : Front: L R
Частота                                  : 44,1 КГц
Частота кадров                           : 43,066 кадра/сек (1024 spf)
Метод сжатия                             : С потерями
Размер потока                            : 77,4 Мбайт (9%)
Default                                  : Да
Alternate group                          : 1
Лекцию читает кандидат физико-математических наук, научный сотрудник Российского Федерального Ядерного Центра, г. Снежинск - Галина Николаевна Дрёмова.

Скриншоты:




Время раздачи:
по возможности (до появления первых 3-5 скачавших)
 
Не забывайте говорить Спасибо. Не уходите с раздачи!   
Торрент: Зарегистрирован [26 июн 2017, 23:35] Для скачивания .torrent
необходима регистрация
Или скачать с помощью
MediaGet
Статус:
Проверен
 
.torrent скачан: 0 раз
Хэш: 88efa10db6a86f595f809af682b6c1af7b1a7b93
Размер: 845.52 МБ (886 592 656 байт)
Стать Автором раздачи
 
 
Раздал: 0 байт
Скачал: 0 байт
Ратио: Inf.
Сообщения: 28228
Зарегистрирован: 05 окт 2014, 15:23


  • Похожие торренты
    Ответы
    Просмотры
    Последнее сообщение

Вернуться в Видео для мобильных устройств

Ресурс не предоставляет электронные версии произведений, а занимается лишь коллекционированием и каталогизацией ссылок, присылаемых и публикуемых на форуме нашими читателями. Если вы являетесь правообладателем какого-либо представленного материала и не желаете чтобы ссылка на него находилась в нашем каталоге, свяжитесь с нами и мы незамедлительно удалим её. Файлы для обмена на трекере предоставлены пользователями сайта, и администрация не несёт ответственности за их содержание. Просьба не заливать файлы, защищенные авторскими правами, а также файлы нелегального содержания!