Трамвай в другие города (1962) SATRip [MP4 | 700X556@741X556]

 
 Статистика раздачи 
Размер: 345.7 МБ   |  Зарегистрирован: 26 июн 2017, 03:34   |   .torrent скачан: 0 раз
Сидеров: 1  [ 0 байт/сек ]     Личеров: 0  [ 0 байт/сек ]  
  

Трамвай в другие города (1962) SATRip [MP4 | 700X556@741X556]

Сообщение apple2000 » 26 июн 2017, 03:34

Трамвай в другие города (1962) SATRip [MP4 | 700X556@741X556]

Платформа или формат: MP4 | 700X374@764X374
Производство: СССР, Мосфильм
Жанр: Семейный, Короткометражный

Режиссер: Юлий Файт
Актеры: Андрюша Титов, Женя Богданов, Юрий Белов, Геннадий Шпаликов

Описание:
Два дошкольника решили, что ночью трамваи уезжают куда-то отдыхать и если сесть поздним вечером в трамвай, то можно уехать в другой город. В трамвае они встретились с различными людьми, и все оказывались интересными. Интересно было также наблюдать за жизнью большого города, сверкавшего вечерними огнями. На последней остановке приятели сошли и оказались на берегу какого-то водоёма. Ребята улеглись на берегу спать в спальном мешке, специально захваченном ими для путешествия. Проснувшись утром, ребята увидели милиционера, приехавшего на лошади купаться. Ребята сбросили его обмундирование в воду. Милиционер догадался, кто это сделал, и нашёл ребят. Он достал из воду свою одежду и на лошади отвёз ребят домой.



Возраст: этот продукт не был классифицирован
Качество видео: SATRip
Субтитры: отсутствуют

Видео: AVC/H.264, 700x556@741x556, ~2145 Kbps
Аудио: AAC, 2 ch, 192 Kbps
Код: Выделить всё
Общее
Полное имя                               : U:\Трамвай в другие города (1962) SATRip.mp4
Формат                                   : MPEG-4
Профиль формата                          : JVT
Идентификатор кодека                     : avc1 (avc1/mp42)
Размер файла                             : 346 Мбайт
Продолжительность                        : 20 м. 34 с.
Режим общего битрейта                    : Переменный
Общий поток                              : 2349 Кбит/сек
Дата кодирования                         : UTC 2016-05-31 22:42:10
Дата пометки                             : UTC 2016-05-31 22:42:10

Видео
Идентификатор                            : 1
Формат                                   : AVC
Формат/Информация                        : Advanced Video Codec
Профиль формата                          :
Параметр CABAC формата                   : Да
Параметр ReFrames формата                : 2 кадра
Параметр GOP формата                     : M=3, N=30
Идентификатор кодека                     : avc1
Идентификатор кодека/Информация          : Advanced Video Coding
Продолжительность                        : 20 м. 34 с.
Вид битрейта                             : Переменный
Битрейт                                  : 2145 Кбит/сек
Максимальный битрейт                     : 14,0 Мбит/сек
Ширина                                   : 700 пикселей
Высота                                   : 556 пикселей
Соотношение сторон                       : 4:3
Режим частоты кадров                     : Постоянный
Частота кадров                           : 25,000 кадров/сек
Цветовое пространство                    : YUV
Субдискретизация насыщенности            : 4:2:0
Битовая глубина                          : 8 бит
Тип развёртки                            : Прогрессивная
Бит/(Пиксели*Кадры)                      : 0.220
Размер потока                            : 316 Мбайт (91%)
Язык                                     : English
Дата кодирования                         : UTC 2016-05-31 22:42:10
Дата пометки                             : UTC 2016-05-31 22:42:10

Аудио
Идентификатор                            : 2
Формат                                   : AAC
Формат/Информация                        : Advanced Audio Codec
Профиль формата                          : LC
Идентификатор кодека                     : 40
Продолжительность                        : 20 м. 34 с.
Продолжительность оригинала              : 20 м. 34 с.
Вид битрейта                             : Постоянный
Битрейт                                  : 192 Кбит/сек
Каналы                                   : 2 канала
Расположение каналов                     : Front: L R
Частота                                  : 48,0 КГц
Частота кадров                           : 46,875 кадров/сек (1024 spf)
Метод сжатия                             : С потерями
Размер потока                            : 28,3 Мбайт (8%)
Размер потока оригинала                  : 28,3 Мбайт (8%)
Язык                                     : English
Дата кодирования                         : UTC 2016-05-31 22:42:10
Дата пометки                             : UTC 2016-05-31 22:42:10

Скриншоты:






Время раздачи: С 18:00 до 23:00 (до появления первых 3-5 скачавших)
 
Не забывайте говорить Спасибо. Не уходите с раздачи!   
Торрент: Зарегистрирован [26 июн 2017, 03:34] Для скачивания .torrent
необходима регистрация
Или скачать с помощью
MediaGet
Статус:
Проверен
 
.torrent скачан: 0 раз
Хэш: 35982ad804e70d20029062987d3e42933fdec402
Размер: 345.7 МБ (362 489 023 байт)
Стать Автором раздачи
 
 
Раздал: 0 байт
Скачал: 0 байт
Ратио: Inf.
Сообщения: 28228
Зарегистрирован: 05 окт 2014, 15:23


  • Похожие торренты
    Ответы
    Просмотры
    Последнее сообщение

Вернуться в Видео для мобильных устройств

Ресурс не предоставляет электронные версии произведений, а занимается лишь коллекционированием и каталогизацией ссылок, присылаемых и публикуемых на форуме нашими читателями. Если вы являетесь правообладателем какого-либо представленного материала и не желаете чтобы ссылка на него находилась в нашем каталоге, свяжитесь с нами и мы незамедлительно удалим её. Файлы для обмена на трекере предоставлены пользователями сайта, и администрация не несёт ответственности за их содержание. Просьба не заливать файлы, защищенные авторскими правами, а также файлы нелегального содержания!