Лубянка. Жизнь накануне расстрела (Галина Огурная) [2005, Документальный, TVRip]

 
 Статистика раздачи 
Размер: 527.72 МБ   |  Зарегистрирован: 25 июн 2017, 15:05   |   .torrent скачан: 0 раз
Сидеров: 1  [ 0 байт/сек ]     Личеров: 0  [ 0 байт/сек ]  
  

Лубянка. Жизнь накануне расстрела (Галина Огурная) [2005, Документальный, TVRip]

Сообщение Nakazhu » 25 июн 2017, 15:05

Лубянка. Жизнь накануне расстрела
Год выпуска: 2005
Жанр: Документальный
Продолжительность: 00:51:20
Режиссер: Галина Огурная
В ролях: Автор и ведущий: Сергей Медведев
Описание: Генерал-майор Главного разведывательного управления Генштаба Советской Армии Дмитрий Федорович Поляков был завербован осенью 1961 года в Нью-Йорке во время своей служебной командировки. "Бриллиант в короне ЦРУ" - так называли американцы самого ценного советского шпиона, работавшего на ЦРУ и ФБР в течение целой четверти века. Мотив предательства этого человека остался так до конца и не раскрытым ни американцами, ни советскими следственными органами. В отличие от других советских предателей Дмитрий Поляков предал Родину, как он сам утверждал, по идеологическим соображениям, так как не был согласен с проводившейся в то время политикой главы Советского государства Никиты Хрущева. За двадцать пять лет своей работы на американские спецслужбы Поляков выдал несколько десятков советских разведчиков-нелегалов и передал на Запад огромное количество секретных документов военно-стратегического характера. Достаточно сказать, что в архиве ЦРУ, документы, переданные Поляковым, хранятся в 25 огромных ящиках. Такой "результативностью" не мог похвастаться ни один из ранее разоблаченных шпионов, как советских, так и американских. Финал шпионской деятельности Полякова – обычен для людей его круга: сигнал в КГБ от одного из американских предателей, многолетняя разработка, сбор улик и передача через Полякова дезинформации, наконец, арест, суд и расстрел. В заключении стоит сказать, что хотя со дня расстрела Полякова прошло почти двадцать лет, переданная им в свое время информация до сих пор используется американцами во время тех или иных локальных конфликтах в разных частях света. Такова истинная ценность сведений, переданных шпионом-"бриллиантом".
Качество: TVRip
Видео кодек: DivX
Аудио кодек: MP3
Видео: DivX, 704x528 (1.33:1), 25 fps, 1302 kbps, 0.14 bit/pixel
Аудио: MP3, 48 kHz, 2 ch, 128.00 kbps
Общее
Полное имя : Lubjanka.Zhizn.nakanune.rastrela.2005.TVRip.avi
Формат : AVI
Формат/Информация : Audio Video Interleave
Размер файла : 528 Мбайт
Продолжительность : 51 м. 20 с.
Общий поток : 1437 Кбит/сек
Видео
Идентификатор : 0
Формат : MPEG-4 Visual
Профиль формата : Advanced Simple@L5
Параметр BVOP формата : 2
Параметр QPel формата : Нет
Параметр GMC формата : Без точки перехода
Параметр матрицы формата : Default (H.263)
Режим смешивания : Сжатый битовый поток
Идентификатор кодека : DX50
Идентификатор кодека/Подсказка : DivX 5
Продолжительность : 51 м. 19 с.
Битрейт : 1302 Кбит/сек
Ширина : 704 пикселя
Высота : 528 пикселей
Соотношение сторон : 4:3
Частота кадров : 25,000 кадров/сек
Цветовое пространство : YUV
Субдискретизация насыщенности : 4:2:0
Битовая глубина : 8 бит
Тип развёртки : Прогрессивная
Метод сжатия : С потерями
Бит/(Пиксели*Кадры) : 0.140
Размер потока : 478 Мбайт (91%)
Библиотека кодирования : XviD 1.1.2 (UTC 2006-11-01)
Аудио
Идентификатор : 1
Формат : MPEG Audio
Версия формата : Version 1
Профиль формата : Layer 3
Режим : Joint stereo
Расширение режима : MS Stereo
Идентификатор кодека : 55
Идентификатор кодека/Подсказка : MP3
Продолжительность : 51 м. 20 с.
Вид битрейта : Постоянный
Битрейт : 128 Кбит/сек
Каналы : 2 канала
Частота : 48,0 КГц
Метод сжатия : С потерями
Размер потока : 47,0 Мбайт (9%)
Выравнивание : Разделение по промежуткам
Продолжительность промежутка : 1000 мс. (24,99 видеокадров)
Время предзагрузки промежутка : 750 мс.
 
Не забывайте говорить Спасибо. Не уходите с раздачи!   
Торрент: Зарегистрирован [25 июн 2017, 15:05] Скачать торрент
Скачать торрент
[ Размер 10.77 КБ / Просмотров 46 ]
Статус:
Проверен
 
.torrent скачан: 0 раз
Хэш: ea3853dac4383444c40b7c9dc25fa0485779a4d1
Размер: 527.72 МБ (553 351 152 байт)
Стать Автором раздачи
 
 
Раздал: 0 байт
Скачал: 0 байт
Ратио: Inf.
Сообщения: 487468
Зарегистрирован: 17 апр 2014, 13:57


  • Похожие торренты
    Ответы
    Просмотры
    Последнее сообщение

Вернуться в Эпоха СССР (видео)

Ресурс не предоставляет электронные версии произведений, а занимается лишь коллекционированием и каталогизацией ссылок, присылаемых и публикуемых на форуме нашими читателями. Если вы являетесь правообладателем какого-либо представленного материала и не желаете чтобы ссылка на него находилась в нашем каталоге, свяжитесь с нами и мы незамедлительно удалим её. Файлы для обмена на трекере предоставлены пользователями сайта, и администрация не несёт ответственности за их содержание. Просьба не заливать файлы, защищенные авторскими правами, а также файлы нелегального содержания!
cron