NG: В пещере кристаллов / Into the Crystal Cave (2010) HDTV [H.264/1080i-LQ]

 
 Статистика раздачи 
Размер: 2.6 ГБ   |  Зарегистрирован: 25 июн 2017, 00:33   |   .torrent скачан: 0 раз
Сидеров: 1  [ 0 байт/сек ]     Личеров: 0  [ 0 байт/сек ]  
  

NG: В пещере кристаллов / Into the Crystal Cave (2010) HDTV [H.264/1080i-LQ]

Сообщение apple2000 » 25 июн 2017, 00:33

В пещере кристаллов / Into the Crystal Cave (2010) HDTV [H.264/1080i-LQ]

Производство: Канада, Мексика, A Galafilm Productions, C/Producctiones
Жанр: Документальный, спелеология

Режиссер: Гари Ланг, Гонзало Инфанте

Описание:
Пещера кристаллов находится в крошечном мексиканском шахтёрском городке по имени Найка, примерно в 250 километрах от границы с США, в самом центре штата Чихуахуа. Расположенная на глубине 300 метров под землей, в гигантской шахте для добычи свинца, пещера кристаллов оставалась скрытой от глаз на протяжении более 500 тыс лет, пока её случайно не обнаружили шахтёры в 2000 году. Температура - +45 градусов по Цельсию, влажность - 90%. Пещера гигантских кристаллов не балует непрошеных гостей и может убить любого за считанные минуты. Однако есть люди, готовые рисковать жизнями, чтобы изучить это захватывающее таинственное место.



Релиз от: DaVinci
Продолжительность: 00:45:02
Качество видео: HDTV
Перевод: Одноголосый закадровый, профессиональный (Арк ТВ, текст читает - Игорь Тарадайкин)
Субтитры: отсутствуют

Видео: AVC/H.264, 1920x1080, ~7456 kbps
Аудио#1: AC3, 2 ch, 192 Kbps | Русский
Аудио#2: AC3, 2 ch, 192 Kbps | Английский
Код: Выделить всё
Общее
Идентификатор                            : 1 (0x1)
Полное имя                               : F:\КИНО\Into.the.Crystal.Cave.(2010).1080i.HDTV.Rus.Eng.ts
Формат                                   : MPEG-TS
Размер файла                             : 2,60 Гбайт
Продолжительность                        : 45 м. 2 с.
Режим общего битрейта                    : Переменный
Общий поток                              : 8252 Кбит/сек
Максимальный общий битрейт               : 35,5 Мбит/сек

Видео
Идентификатор                            : 4113 (0x1011)
Идентификатор меню                       : 1 (0x1)
Формат                                   : AVC
Формат/Информация                        : Advanced Video Codec
Профиль формата                          : High@L4
Параметр CABAC формата                   : Да
Параметр ReFrames формата                : 3 кадра
Идентификатор кодека                     : 27
Продолжительность                        : 45 м. 2 с.
Вид битрейта                             : Переменный
Битрейт                                  : 7456 Кбит/сек
Максимальный битрейт                     : 40,0 Мбит/сек
Ширина                                   : 1920 пикселей
Высота                                   : 1080 пикселей
Соотношение сторон                       : 16:9
Частота кадров                           : 25,000 кадров/сек
Стандарт вещания                         : Component
Цветовое пространство                    : YUV
Субдискретизация насыщенности            : 4:2:0
Битовая глубина                          : 8 бит
Тип развёртки                            : Чересстрочная
Метод сохранения типа развёртки          : Раздельные поля
Порядок развёртки                        : Верхнее поле первое
Бит/(Пиксели*Кадры)                      : 0.144
Размер потока                            : 2,35 Гбайт (90%)
Цветовой диапазон                        : Limited
Основные цвета                           : BT.709
Характеристики трансфера                 : BT.709
Коэффициенты матрицы                     : BT.709

Аудио #1
Идентификатор                            : 4352 (0x1100)
Идентификатор меню                       : 1 (0x1)
Формат                                   : AC-3
Формат/Информация                        : Audio Coding 3
Параметр Endianness формата              : Big
Идентификатор кодека                     : 129
Продолжительность                        : 45 м. 2 с.
Вид битрейта                             : Постоянный
Битрейт                                  : 192 Кбит/сек
Каналы                                   : 2 канала
Расположение каналов                     : Front: L R
Частота                                  : 48,0 КГц
Частота кадров                           : 31,250 кадров/сек (1536 spf)
Битовая глубина                          : 16 бит
Метод сжатия                             : С потерями
Размер потока                            : 61,9 Мбайт (2%)
Язык                                     : Russian
ServiceKind/String                       : Complete Main

Аудио #2
Идентификатор                            : 4353 (0x1101)
Идентификатор меню                       : 1 (0x1)
Формат                                   : AC-3
Формат/Информация                        : Audio Coding 3
Параметр Endianness формата              : Big
Идентификатор кодека                     : 129
Продолжительность                        : 45 м. 2 с.
Вид битрейта                             : Постоянный
Битрейт                                  : 192 Кбит/сек
Каналы                                   : 2 канала
Расположение каналов                     : Front: L R
Частота                                  : 48,0 КГц
Частота кадров                           : 31,250 кадров/сек (1536 spf)
Битовая глубина                          : 16 бит
Метод сжатия                             : С потерями
Размер потока                            : 61,9 Мбайт (2%)
Язык                                     : English
ServiceKind/String                       : Complete Main

Скриншоты:




Время раздачи: с 18:00 до 23:00 (до появления первых 3-5 скачавших)
 
Не забывайте говорить Спасибо. Не уходите с раздачи!   
Торрент: Зарегистрирован [25 июн 2017, 00:33] Для скачивания .torrent
необходима регистрация
Или скачать с помощью
MediaGet
Статус:
Проверен
 
.torrent скачан: 0 раз
Хэш: 4674584d38127b4156259f98eb1f41e08b384dfb
Размер: 2.6 ГБ (2 787 536 348 байт)
Стать Автором раздачи
 
 
Раздал: 0 байт
Скачал: 0 байт
Ратио: Inf.
Сообщения: 37949
Зарегистрирован: 05 окт 2014, 15:23


  • Похожие торренты
    Ответы
    Просмотры
    Последнее сообщение

Вернуться в National Geographic

Ресурс не предоставляет электронные версии произведений, а занимается лишь коллекционированием и каталогизацией ссылок, присылаемых и публикуемых на форуме нашими читателями. Если вы являетесь правообладателем какого-либо представленного материала и не желаете чтобы ссылка на него находилась в нашем каталоге, свяжитесь с нами и мы незамедлительно удалим её. Файлы для обмена на трекере предоставлены пользователями сайта, и администрация не несёт ответственности за их содержание. Просьба не заливать файлы, защищенные авторскими правами, а также файлы нелегального содержания!