BBC: Гиганты ледникового периода / Ice Age Giants (2013) HDTVRip [H.264/720p-LQ] (сезон 1, эпизоды 1-3 из 3)

 
 Статистика раздачи 
Размер: 4.2 ГБ   |  Зарегистрирован: 24 июн 2017, 04:38   |   .torrent скачан: 0 раз
Сидеров: 1  [ 0 байт/сек ]     Личеров: 0  [ 0 байт/сек ]  
  

BBC: Гиганты ледникового периода / Ice Age Giants (2013) HDTVRip [H.264/720p-LQ] (сезон 1, эпизоды 1-3 из 3)

Сообщение apple2000 » 24 июн 2017, 04:38

Гиганты ледникового периода / Ice Age Giants (2013) HDTVRip [H.264/720p-LQ] (сезон 1, эпизоды 1-3 из 3)

Производство: Великобритания, BBC Bristol Productions, Discovery Channel UK, France Televisions
Жанр: Документальный, научно-популярный

Режиссер: Марк Флауэрс, Тим Уокер, Mags Lightbody
Участники: Элис Робертс, Алун Хаббард, Григорьев Семен Егорович, Джон М. Харрис, Ник Зентнер...

Описание:
Во время последнего ледникового периода зима воцарилась на всей планете, изменив очертания континентов. Кровожадные саблезубые тигры преследовали свою добычу на обледенелых просторах Северной Америки.
В Европе пещерные львы и медведи соперничали в борьбе за выживание, а косматые мамонты и носороги процветали на ледяном континенте. С началом потепления многие из них оказались под угрозой из-за таяния ледяных покровов и преследования первых людей-охотников. Профессор Элис Робертс применяет свои обширные знания и современную компьютерную анимацию, чтобы познакомить нас с исполинскими обитателями ледникового периода. Смотрите уникальный проект, который с помощью новейших технологий не только оживит существ ледниковой эры, но и покажет их образ жизни и привычки. Благодаря чему животные смогли пережить ледниковую эру? Какое доисторическое существо было опаснейшим на планете? И как мегафауна боролось с холодом? Удивительные палеонтологические находки, сверхсовременная компьютерная графика и рискованное путешествие профессора Элис Робертс в прежних владений мамонтов и тигров позволит увидеть их жизнь изнутри!



Релиз от: DeTorquemada
Продолжительность: 3x~00:58:30
Качество видео: HDTVRip
Перевод: Одноголосый закадровый, профессиональный (SDI Media)
Автор перевода: Вячеслав Козлов
Текст читает: Виктория Бабанова
Субтитры: английские

Видео: AVC/H.264, 1280x720, 2845 - 3141 kbps
Аудио#1: AC3, 2 ch, 192 Kbps | Русский
Аудио#2: AC3, 2 ch, 192 Kbps | Английский
Код: Выделить всё
Общее
Уникальный идентификатор                 : 211037694050991159709524121226497639839 (0x9EC461A5D64D4FDBB76A8E6170F6459F)
Полное имя                               : F:\КИНО\Ice.Age.Giants.2013.S01.HDTVRip.720p\Ice.Age.Giants.2013.S01E01.HDTVRip.720p.Rus.Eng.mkv
Формат                                   : Matroska
Версия формата                           : Version 4 / Version 2
Размер файла                             : 1,37 Гбайт
Продолжительность                        : 58 м. 17 с.
Общий поток                              : 3364 Кбит/сек
Название фильма                          : Create by DeTorquemada for HDCLUB
Дата кодирования                         : UTC 2017-06-20 15:43:26
Программа кодирования                    : mkvmerge v8.3.0 ('Over the Horizon') 64bit
Библиотека кодирования                   : libebml v1.3.1 + libmatroska v1.4.2

Видео
Идентификатор                            : 1
Формат                                   : AVC
Формат/Информация                        : Advanced Video Codec
Профиль формата                          :
Параметр CABAC формата                   : Да
Параметр ReFrames формата                : 7 кадров
Идентификатор кодека                     : V_MPEG4/ISO/AVC
Продолжительность                        : 58 м. 17 с.
Битрейт                                  : 2913 Кбит/сек
Ширина                                   : 1280 пикселей
Высота                                   : 720 пикселей
Соотношение сторон                       : 16:9
Режим частоты кадров                     : Постоянный
Частота кадров                           : 25,000 кадров/сек
Цветовое пространство                    : YUV
Субдискретизация насыщенности            : 4:2:0
Битовая глубина                          : 8 бит
Тип развёртки                            : Прогрессивная
Бит/(Пиксели*Кадры)                      : 0.126
Размер потока                            : 1,19 Гбайт (87%)
Заголовок                                : Гиганты ледникового периода. Край саблезубых тигров / Ice Age Giants. Land of the Sabre-Tooth (2013) - Release for HDCLUB
Библиотека кодирования                   : x264 core 148 r2721 72d53ab
Настройки программы                      : cabac=1 / ref=7 / deblock=1:-3:-3 / analyse=0x3:0x113 / me=umh / subme=10 / psy=1 / psy_rd=1.00:0.00 / mixed_ref=1 / me_range=32 / chroma_me=1 / trellis=2 / 8x8dct=1 / cqm=0 / deadzone=21,11 / fast_pskip=1 / chroma_qp_offset=-2 / threads=6 / lookahead_threads=1 / sliced_threads=0 / nr=0 / decimate=1 / interlaced=0 / bluray_compat=0 / constrained_intra=0 / bframes=8 / b_pyramid=2 / b_adapt=2 / b_bias=0 / direct=1 / weightb=1 / open_gop=0 / weightp=2 / keyint=250 / keyint_min=25 / scenecut=40 / intra_refresh=0 / rc_lookahead=40 / rc=crf / mbtree=0 / crf=18.0 / qcomp=0.60 / qpmin=0 / qpmax=69 / qpstep=4 / vbv_maxrate=50000 / vbv_bufsize=62500 / crf_max=0.0 / nal_hrd=none / filler=0 / ip_ratio=1.40 / pb_ratio=1.30 / aq=1:0.80
Язык                                     : English
Default                                  : Да
Forced                                   : Нет
Цветовой диапазон                        : Limited
Коэффициенты матрицы                     : BT.709

Аудио #1
Идентификатор                            : 2
Формат                                   : AC-3
Формат/Информация                        : Audio Coding 3
Параметр Endianness формата              : Big
Идентификатор кодека                     : A_AC3
Продолжительность                        : 58 м. 17 с.
Вид битрейта                             : Постоянный
Битрейт                                  : 192 Кбит/сек
Каналы                                   : 2 канала
Расположение каналов                     : Front: L R
Частота                                  : 48,0 КГц
Частота кадров                           : 31,250 кадров/сек (1536 spf)
Битовая глубина                          : 16 бит
Метод сжатия                             : С потерями
Размер потока                            : 80,1 Мбайт (6%)
Заголовок                                : 48 kHz, АС3, 2.0 (L,R) ch, ~192 kbps - Профессиональный одноголосый, Виктория Бабанова
Язык                                     : Russian
ServiceKind/String                       : Complete Main
Default                                  : Нет
Forced                                   : Нет

Аудио #2
Идентификатор                            : 3
Формат                                   : AC-3
Формат/Информация                        : Audio Coding 3
Параметр Endianness формата              : Big
Идентификатор кодека                     : A_AC3
Продолжительность                        : 58 м. 17 с.
Вид битрейта                             : Постоянный
Битрейт                                  : 192 Кбит/сек
Каналы                                   : 2 канала
Расположение каналов                     : Front: L R
Частота                                  : 48,0 КГц
Частота кадров                           : 31,250 кадров/сек (1536 spf)
Битовая глубина                          : 16 бит
Метод сжатия                             : С потерями
Задержка видео                           : 10 мс.
Размер потока                            : 80,1 Мбайт (6%)
Заголовок                                : 48kHz/16-bit, AC3, 2/0 (L,R) ch, ~192.00 kbps - Alice Roberts
Язык                                     : English
ServiceKind/String                       : Complete Main
Default                                  : Нет
Forced                                   : Нет

Текст
Идентификатор                            : 4
Формат                                   : UTF-8
Идентификатор кодека                     : S_TEXT/UTF8
Идентификатор кодека/Информация          : UTF-8 Plain Text
Заголовок                                : Subtitles/Captions
Язык                                     : English
Default                                  : Да
Forced                                   : Нет
Эпизод 01: Край саблезубых тигров / Land of the Sabre-Tooth
Тысячи лет назад Северную Америку покрывала трехкилометровая толща льда, а населявшие ее гигантские мамонты и огромные косматые носороги становились добычей стай свирепых саблезубых кошек.
Эпизод 02: Край пещерных медведей / Land of the Cave Bear
Профессор Элис Робертс едет в Европу и обнаруживает пещеру с останками доисторических льва и медведя. В тундростепи сохранились следы первых охотников-неандертальцев.
Эпизод 03: Последний из гигантов / Last of the Giants
В заключительной серии профессор Робертс исследует потепление на планете, приведшее к вымиранию большинства гигантов ледникового периода. Мы также узнаем трогательную историю мастодонта.

Скриншоты:




Время раздачи: с 18:00 до 23:00 (до появления первых 3-5 скачавших)
 
Не забывайте говорить Спасибо. Не уходите с раздачи!   
Торрент: Зарегистрирован [24 июн 2017, 04:38] Скачать торрент
Скачать торрент
[ Размер 11.65 КБ / Просмотров 42 ]
Статус:
Проверен
 
.torrent скачан: 0 раз
Хэш: ecf46535d730d36b70b663925a117df607d16178
Размер: 4.2 ГБ (4 507 740 504 байт)
Стать Автором раздачи
 
 
Раздал: 0 байт
Скачал: 0 байт
Ратио: Inf.
Сообщения: 45214
Зарегистрирован: 05 окт 2014, 15:23


  • Похожие торренты
    Ответы
    Просмотры
    Последнее сообщение

Вернуться в BBC

Ресурс не предоставляет электронные версии произведений, а занимается лишь коллекционированием и каталогизацией ссылок, присылаемых и публикуемых на форуме нашими читателями. Если вы являетесь правообладателем какого-либо представленного материала и не желаете чтобы ссылка на него находилась в нашем каталоге, свяжитесь с нами и мы незамедлительно удалим её. Файлы для обмена на трекере предоставлены пользователями сайта, и администрация не несёт ответственности за их содержание. Просьба не заливать файлы, защищенные авторскими правами, а также файлы нелегального содержания!