Shy'm - Reflets (2008) [FLAC|Lossless|tracks + .cue] <R&B>

 
 Статистика раздачи 
Размер: 339.25 МБ   |  Зарегистрирован: 23 июн 2017, 23:06   |   .torrent скачан: 0 раз
Сидеров: 1  [ 0 байт/сек ]     Личеров: 0  [ 0 байт/сек ]  
  

Shy'm - Reflets (2008) [FLAC|Lossless|tracks + .cue] <R&B>

Сообщение apple2000 » 23 июн 2017, 23:06

Shy'm - Reflets (2008)

Жанр: R&B
Продолжительность: 00:51:04

Кодек: FLAC
Битрейт: Lossless
Тип рипа: tracks + .cue

Треклист:
01. La Premiere Fois
02. Step Back (feat. Odessa Thornhill)
03. Tout Est Dit
04. Faut Recommencer
05. Garde Tout
06. Ma Peur
07. Si Tu Savais
08. Je Prends Sur Moi
09. Nulle Part Ailleurs
10. L'unique
11. Pas Pour Moi
12. A L'abri (feat. K-Maro)
13. On N'a Pas Tout Notre Temps
14. La Premiere Fois (Remix)
Код: Выделить всё
Exact Audio Copy V0.99 prebeta 4 from 23. January 2008

EAC extraction logfile from 14. May 2009, 4:10

Shy'm / Reflets

Used drive : HL-DT-STDVDRRW GSA-H30L Adapter: 0 ID: 1

Read mode : Secure
Utilize accurate stream : Yes
Defeat audio cache : Yes
Make use of C2 pointers : No

Read offset correction : 102
Overread into Lead-In and Lead-Out : No
Fill up missing offset samples with silence : Yes
Delete leading and trailing silent blocks : No
Null samples used in CRC calculations : Yes
Used interface : Native Win32 interface for Win NT & 2000
Gap handling : Appended to previous track

Used output format : User Defined Encoder
Selected bitrate : 128 kBit/s
Quality : High
Add ID3 tag : No
Command line compressor : C:\Program Files\WAV\WAV.exe
Additional command line options : -V -8 -T "artist=%a" -T "title=%t" -T "album=%g" -T "date=%y" -T "tracknumber=%n" -T "genre=%m" %s

TOC of the extracted CD

Track | Start | Length | Start sector | End sector
---------------------------------------------------------
1 | 0:00.00 | 3:23.66 | 0 | 15290
2 | 3:23.66 | 3:22.61 | 15291 | 30501
3 | 6:46.52 | 3:15.01 | 30502 | 45127
4 | 10:01.53 | 4:00.38 | 45128 | 63165
5 | 14:02.16 | 4:06.29 | 63166 | 81644
6 | 18:08.45 | 3:41.69 | 81645 | 98288
7 | 21:50.39 | 3:23.23 | 98289 | 113536
8 | 25:13.62 | 3:05.41 | 113537 | 127452
9 | 28:19.28 | 3:46.23 | 127453 | 144425
10 | 32:05.51 | 3:19.45 | 144426 | 159395
11 | 35:25.21 | 3:52.62 | 159396 | 176857
12 | 39:18.08 | 3:45.73 | 176858 | 193805
13 | 43:04.06 | 4:04.38 | 193806 | 212143
14 | 47:08.44 | 4:03.33 | 212144 | 230401

Track 1

Filename C:\Users\Spencer\Desktop\Shy'm - Reflets FLAC\01 La Première Fois.wav

Pre-gap length 0:00:02.00

Peak level 98.8 %
Track quality 99.9 %
Test CRC 39211D53
Copy CRC 39211D53
Accurately ripped (confidence 2) [15E3B3E8]
Copy OK

Track 2

Filename C:\Users\Spencer\Desktop\Shy'm - Reflets FLAC\02 Step Back (feat. Odessa Thornhill).wav

Peak level 98.8 %
Track quality 100.0 %
Test CRC 4F28F19B
Copy CRC 4F28F19B
Accurately ripped (confidence 2) [0E28BEEB]
Copy OK

Track 3

Filename C:\Users\Spencer\Desktop\Shy'm - Reflets FLAC\03 Tout Est Dit.wav

Peak level 98.8 %
Track quality 100.0 %
Test CRC BCDC9DCC
Copy CRC BCDC9DCC
Accurately ripped (confidence 2) [A6280CED]
Copy OK

Track 4

Filename C:\Users\Spencer\Desktop\Shy'm - Reflets FLAC\04 Faut Recommencer.wav

Peak level 98.8 %
Track quality 100.0 %
Test CRC 79757E09
Copy CRC 79757E09
Accurately ripped (confidence 2) [90162342]
Copy OK

Track 5

Filename C:\Users\Spencer\Desktop\Shy'm - Reflets FLAC\05 Garde Tout.wav

Peak level 98.8 %
Track quality 99.9 %
Test CRC C2449435
Copy CRC C2449435
Accurately ripped (confidence 2) [BB3A266B]
Copy OK

Track 6

Filename C:\Users\Spencer\Desktop\Shy'm - Reflets FLAC\06 Ma Peur.wav

Peak level 98.8 %
Track quality 100.0 %
Test CRC CB983494
Copy CRC CB983494
Accurately ripped (confidence 2) [E4540BA1]
Copy OK

Track 7

Filename C:\Users\Spencer\Desktop\Shy'm - Reflets FLAC\07 Si Tu Savais.wav

Peak level 98.8 %
Track quality 100.0 %
Test CRC 561926B6
Copy CRC 561926B6
Accurately ripped (confidence 2) [80E51F33]
Copy OK

Track 8

Filename C:\Users\Spencer\Desktop\Shy'm - Reflets FLAC\08 Je Prends Sur Moi.wav

Peak level 98.8 %
Track quality 100.0 %
Test CRC DF4AC674
Copy CRC DF4AC674
Accurately ripped (confidence 2) [533223D0]
Copy OK

Track 9

Filename C:\Users\Spencer\Desktop\Shy'm - Reflets FLAC\09 Nulle Part Ailleurs.wav

Peak level 98.8 %
Track quality 100.0 %
Test CRC F765435D
Copy CRC F765435D
Accurately ripped (confidence 2) [041DA2C8]
Copy OK

Track 10

Filename C:\Users\Spencer\Desktop\Shy'm - Reflets FLAC\10 L'Unique.wav

Peak level 98.8 %
Track quality 100.0 %
Test CRC EF8669E0
Copy CRC EF8669E0
Accurately ripped (confidence 2) [E7C2F884]
Copy OK

Track 11

Filename C:\Users\Spencer\Desktop\Shy'm - Reflets FLAC\11 Pas Pour Moi.wav

Peak level 98.8 %
Track quality 100.0 %
Test CRC 4F017864
Copy CRC 4F017864
Accurately ripped (confidence 2) [B80EC520]
Copy OK

Track 12

Filename C:\Users\Spencer\Desktop\Shy'm - Reflets FLAC\12 A L'Abri (feat. K. Maro).wav

Peak level 98.8 %
Track quality 100.0 %
Test CRC 05C6B578
Copy CRC 05C6B578
Accurately ripped (confidence 2) [1C939AD9]
Copy OK

Track 13

Filename C:\Users\Spencer\Desktop\Shy'm - Reflets FLAC\13 On N'a Pas Tout Notre Temps.wav

Peak level 98.8 %
Track quality 100.0 %
Test CRC 8B1CB5CC
Copy CRC 8B1CB5CC
Accurately ripped (confidence 2) [B1732769]
Copy OK

Track 14

Filename C:\Users\Spencer\Desktop\Shy'm - Reflets FLAC\14 La Première Fois (Remix).wav

Peak level 98.8 %
Track quality 99.9 %
Test CRC 06B742A5
Copy CRC 06B742A5
Accurately ripped (confidence 2) [07B53622]
Copy OK

All tracks accurately ripped

No errors occurred

End of status report
Код: Выделить всё
REM DATE 2008
REM DISCID A00C000E
REM COMMENT "ExactAudioCopy v0.99pb4"
PERFORMER "Shy'm"
TITLE "Reflets"
FILE "01 La Premiиre Fois.wav" WAVE
TRACK 01 AUDIO
TITLE "La Premiиre Fois"
PERFORMER "Shy'm"
INDEX 01 00:00:00
FILE "02 Step Back (feat. Odessa Thornhill).wav" WAVE
TRACK 02 AUDIO
TITLE "Step Back (feat. Odessa Thornhill)"
PERFORMER "Shy'm"
INDEX 01 00:00:00
FILE "03 Tout Est Dit.wav" WAVE
TRACK 03 AUDIO
TITLE "Tout Est Dit"
PERFORMER "Shy'm"
INDEX 01 00:00:00
FILE "04 Faut Recommencer.wav" WAVE
TRACK 04 AUDIO
TITLE "Faut Recommencer"
PERFORMER "Shy'm"
INDEX 01 00:00:00
FILE "05 Garde Tout.wav" WAVE
TRACK 05 AUDIO
TITLE "Garde Tout"
PERFORMER "Shy'm"
INDEX 01 00:00:00
FILE "06 Ma Peur.wav" WAVE
TRACK 06 AUDIO
TITLE "Ma Peur"
PERFORMER "Shy'm"
INDEX 01 00:00:00
FILE "07 Si Tu Savais.wav" WAVE
TRACK 07 AUDIO
TITLE "Si Tu Savais"
PERFORMER "Shy'm"
INDEX 01 00:00:00
FILE "08 Je Prends Sur Moi.wav" WAVE
TRACK 08 AUDIO
TITLE "Je Prends Sur Moi"
PERFORMER "Shy'm"
INDEX 01 00:00:00
FILE "09 Nulle Part Ailleurs.wav" WAVE
TRACK 09 AUDIO
TITLE "Nulle Part Ailleurs"
PERFORMER "Shy'm"
INDEX 01 00:00:00
FILE "10 L'Unique.wav" WAVE
TRACK 10 AUDIO
TITLE "L'Unique"
PERFORMER "Shy'm"
INDEX 01 00:00:00
FILE "11 Pas Pour Moi.wav" WAVE
TRACK 11 AUDIO
TITLE "Pas Pour Moi"
PERFORMER "Shy'm"
INDEX 01 00:00:00
FILE "12 A L'Abri (feat. K. Maro).wav" WAVE
TRACK 12 AUDIO
TITLE "A L'Abri (feat. K. Maro)"
PERFORMER "Shy'm"
INDEX 01 00:00:00
FILE "13 On N'a Pas Tout Notre Temps.wav" WAVE
TRACK 13 AUDIO
TITLE "On N'a Pas Tout Notre Temps"
PERFORMER "Shy'm"
INDEX 01 00:00:00
FILE "14 La Premiиre Fois (Remix).wav" WAVE
TRACK 14 AUDIO
TITLE "La Premiиre Fois (Remix)"
PERFORMER "Shy'm"
INDEX 01 00:00:00
Код: Выделить всё
-----------------------

DON'T MODIFY THIS FILE

-----------------------

PERFORMER: auCDtect Task Manager, ver. 1.6.0 RC1 build 1.6.0.1
Copyright (c) 2008-2010 y-soft. All rights reserved
[url=http://y-soft.org]http://y-soft.org[/url]

ANALYZER: auCDtect: CD records authenticity detector, version 0.8.2
Copyright (c) 2004 Oleg Berngardt. All rights reserved.
Copyright (c) 2004 Alexander Djourik. All rights reserved.

FILE: 14 La Premiere Fois (Remix).flac
  Size: 29738329 Hash: AAF9215C5D07B2A196E4DF5290BC9A48 Accuracy: -m0
  Conclusion: MPEG 95%
  Signature: 8C1F5BDFF0B80FB434E5834884E6211460053352
FILE: 13 On N'a Pas Tout Notre Temps.flac
  Size: 28433708 Hash: 25E2062B35B95864F84FBC848CE4AAB0 Accuracy: -m0
  Conclusion: CDDA 100%
  Signature: 0A91BC5448CADBC70D290225F697B4B352E05945
FILE: 12 A L'Abri (feat. K. Maro).flac
  Size: 25429763 Hash: 93112AB2A542646128CC9909EB104BCA Accuracy: -m0
  Conclusion: CDDA 100%
  Signature: BF04B3BDCA716B0D8911AAACAD885A057C92A838
FILE: 11 Pas Pour Moi.flac
  Size: 25621402 Hash: 1E8A84A8EE0583898DCE54138BD3A7AF Accuracy: -m0
  Conclusion: CDDA 100%
  Signature: 6B56D5A3C867AA3BCBD4BAC8D4D5513755878072
FILE: 10 L'Unique.flac
  Size: 24046194 Hash: E353688765B02AFF975A3AA1774205AD Accuracy: -m0
  Conclusion: CDDA 100%
  Signature: 4AE1C62E3519B362D217DC18F05C59D6739744F4
FILE: 09 Nulle Part Ailleurs.flac
  Size: 26262884 Hash: 06F887E145997FD0205E444E200A156A Accuracy: -m0
  Conclusion: CDDA 100%
  Signature: 8FAB398F0E4E06257A98274AEFAF40EC64DB0DEB
FILE: 08 Je Prends Sur Moi.flac
  Size: 21598534 Hash: EE28642B8516786ED095164309EB603E Accuracy: -m0
  Conclusion: MPEG 95%
  Signature: 236A38ED652B216AAE6AA5DF9F9273447118F653
FILE: 07 Si Tu Savais.flac
  Size: 23739904 Hash: 805AB1EF615970F1EEA5F5D3AD71EED0 Accuracy: -m0
  Conclusion: CDDA 99%
  Signature: 4F4E6F5D721F26335F6FAF3B161134F92E10E6CB
FILE: 06 Ma Peur.flac
  Size: 24651646 Hash: 20BFE722DFE847D01D5AC2EB8CE0C865 Accuracy: -m0
  Conclusion: CDDA 100%
  Signature: DC14B5F3F6D53F52CF21390D2B26B06E190261FE
FILE: 05 Garde Tout.flac
  Size: 30142835 Hash: 1024BD215074993445D09466F138C36C Accuracy: -m0
  Conclusion: CDDA 100%
  Signature: 507F6150C8B505452FD15648C5A262C42AC3D4B6
FILE: 04 Faut Recommencer.flac
  Size: 26797053 Hash: B32F25D24715D994A3980A7817CF0089 Accuracy: -m0
  Conclusion: CDDA 100%
  Signature: 20D5D8DF4C3D952C286E50A6BA60949DEA71CDC9
FILE: 03 Tout Est Dit.flac
  Size: 22920122 Hash: C010B38BEE22709645C519E2CEDCF2EF Accuracy: -m0
  Conclusion: CDDA 100%
  Signature: 75552A8CBD35D64636CB5E74869E1399889C359E
FILE: 02 Step Back (feat. Odessa Thornhill).flac
  Size: 20922765 Hash: DB9F67DBA171DA7111F8411ED7C04F13 Accuracy: -m0
  Conclusion: CDDA 100%
  Signature: 532A62EB5736D1A7972B4435464F6F97A52E38EE
FILE: 01 La Premiere Fois.flac
  Size: 25243056 Hash: 7D5772A820BE15B67596E4A86384E6A4 Accuracy: -m0
  Conclusion: CDDA 100%
  Signature: 012E9B03E5F17E561ED02E628A1EF44D17DF85C1

#7
Код: Выделить всё
[b]Поглощение/вытеснение [/b]
[b]Только с согласия релизера[/b]
[b][u][i]kudzin[/b][/i][/u]
 
Не забывайте говорить Спасибо. Не уходите с раздачи!   
Торрент: Зарегистрирован [23 июн 2017, 23:06] Скачать торрент
Скачать торрент
[ Размер 14.96 КБ / Просмотров 40 ]
Статус:
Проверен
 
.torrent скачан: 0 раз
Хэш: eeb44ddd77cd36f45a05972bac994f51410ad8e1
Размер: 339.25 МБ (355 727 382 байт)
Стать Автором раздачи
 
 
Раздал: 0 байт
Скачал: 0 байт
Ратио: Inf.
Сообщения: 45211
Зарегистрирован: 05 окт 2014, 15:23


  • Похожие торренты
    Ответы
    Просмотры
    Последнее сообщение

Вернуться в RnB, Reggae (транзит Lossless)

Ресурс не предоставляет электронные версии произведений, а занимается лишь коллекционированием и каталогизацией ссылок, присылаемых и публикуемых на форуме нашими читателями. Если вы являетесь правообладателем какого-либо представленного материала и не желаете чтобы ссылка на него находилась в нашем каталоге, свяжитесь с нами и мы незамедлительно удалим её. Файлы для обмена на трекере предоставлены пользователями сайта, и администрация не несёт ответственности за их содержание. Просьба не заливать файлы, защищенные авторскими правами, а также файлы нелегального содержания!