Я тебя хочу / I Want You (1998) DVDRip [H.264]

 
 Статистика раздачи 
Размер: 1.57 ГБ   |  Зарегистрирован: 23 июн 2017, 20:33   |   .torrent скачан: 0 раз
Сидеров: 1  [ 0 байт/сек ]     Личеров: 0  [ 0 байт/сек ]  
  

Я тебя хочу / I Want You (1998) DVDRip [H.264]

Сообщение apple2000 » 23 июн 2017, 20:33

Я тебя хочу / I Want You (1998) DVDRip

Производство: Великобритания | Polygram Filmed Entertainment, Revolution Films
Жанр: Драма, Мелодрама

Режиссер: Майкл Уинтерботтом
Актеры: Рэйчел Вайс, Алессандро Нивола, Люка Петрусик, Лабина Митевска, Пол Попплуэлл, Бен Дэниелс, Грэм Кроуден, Джеральдин О’Роу, Стив Джон Шеперд, Филлида Ло

Описание:
Чужие откровенные признания и стоны страсти составляют коллекцию немого 14-летнего подростка. С помощью специальной техники он проникает в тайны жителей городка, он знает о них больше, чем самые ярые сплетницы. Но даже ему не разобраться в сложных отношениях Хелен и ее бывшего любовника, вышедшего недавно из тюрьмы. Постепенно мальчик из наблюдателя превращается в участника жестокой драмы, где загадки, преступление из прошлого и страсть сплетаются в один запутанный клубок.



Возраст: 18+ (зрителям, достигшим 18 лет. запрещено для детей)
Рейтинг MPAA: R (лицам до 17 лет обязательно присутствие взрослого)

Продолжительность: 01:24:00
Качество видео: DVDRip
Перевод: Профессиональный (многоголосый закадровый)
Субтитры: Отсутствуют

Видео: AVC/H.264, 712x424@1012x424, ~1734 kbps
Аудио #1: AC3, 6 ch, 448 kbps | Русский, многоголосый закадровый
Аудио #2: AC3, 6 ch, 448 kbps | Английский
Код: Выделить всё
General
Unique ID                      : 195911243364610571159223108546575982540 (0x9363220C898BD9CD856651EB48FFDFCC)
Complete name                  : D:\I Want You (1998).mkv
Format                         : Matroska
Format version                 : Version 4 / Version 2
File size                      : 1.57 GiB
Duration                       : 1h 24mn
Overall bit rate               : 2 683 Kbps
Encoded date                   : UTC 2017-06-21 04:16:12
Writing application            : mkvmerge v6.6.0 ('The Edge Of The In Between') built on Dec  1 2013 17:55:00
Writing library                : libebml v1.3.0 + libmatroska v1.4.1

Video
ID                             : 1
Format                         : AVC
Format/Info                    : Advanced Video Codec
Format profile                 : High@L3
Format settings, CABAC         : Yes
Format settings, ReFrames      : 6 frames
Codec ID                       : V_MPEG4/ISO/AVC
Duration                       : 1h 24mn
Bit rate                       : 1 734 Kbps
Width                          : 712 pixels
Height                         : 424 pixels
Display aspect ratio           : 2.40:1
Original display aspect ratio  : 2.40:1
Frame rate mode                : Constant
Frame rate                     : 25.000 fps
Color space                    : YUV
Chroma subsampling             : 4:2:0
Bit depth                      : 8 bits
Scan type                      : Progressive
Bits/(Pixel*Frame)             : 0.230
Stream size                    : 1.02 GiB (65%)
Writing library                : x264 core 115 r2008 4c552d8
Encoding settings              : cabac=1 / ref=6 / deblock=1:-2:-2 / analyse=0x3:0x133 / me=umh / subme=10 / psy=1 / psy_rd=1.00:0.00 / mixed_ref=1 / me_range=24 / chroma_me=1 / trellis=2 / 8x8dct=1 / cqm=0 / deadzone=21,11 / fast_pskip=0 / chroma_qp_offset=-2 / threads=6 / sliced_threads=0 / nr=0 / decimate=1 / interlaced=0 / bluray_compat=0 / constrained_intra=0 / bframes=5 / b_pyramid=2 / b_adapt=2 / b_bias=0 / direct=3 / weightb=1 / open_gop=0 / weightp=2 / keyint=250 / keyint_min=25 / scenecut=40 / intra_refresh=0 / rc_lookahead=60 / rc=crf / mbtree=1 / crf=16.8 / qcomp=0.60 / qpmin=0 / qpmax=69 / qpstep=4 / ip_ratio=1.40 / aq=1:1.20
Language                       : English
Default                        : Yes
Forced                         : No

Audio #1
ID                             : 2
Format                         : AC-3
Format/Info                    : Audio Coding 3
Mode extension                 : CM (complete main)
Format settings, Endianness    : Big
Codec ID                       : A_AC3
Duration                       : 1h 24mn
Bit rate mode                  : Constant
Bit rate                       : 448 Kbps
Channel(s)                     : 6 channels
Channel positions              : Front: L C R, Side: L R, LFE
Sampling rate                  : 48.0 KHz
Compression mode               : Lossy
Delay relative to video        : 15s 300ms
Stream size                    : 269 MiB (17%)
Title                          : MVO
Language                       : Russian
Default                        : Yes
Forced                         : No

Audio #2
ID                             : 3
Format                         : AC-3
Format/Info                    : Audio Coding 3
Mode extension                 : CM (complete main)
Format settings, Endianness    : Big
Codec ID                       : A_AC3
Duration                       : 1h 24mn
Bit rate mode                  : Constant
Bit rate                       : 448 Kbps
Channel(s)                     : 6 channels
Channel positions              : Front: L C R, Side: L R, LFE
Sampling rate                  : 48.0 KHz
Compression mode               : Lossy
Delay relative to video        : 15s 300ms
Stream size                    : 269 MiB (17%)
Language                       : English
Default                        : No
Forced                         : No

Menu
00:00:00.120                   : :Chapter 1
00:04:12.680                   : :Chapter 2
00:12:37.880                   : :Chapter 3
00:17:58.280                   : :Chapter 4
00:24:18.080                   : :Chapter 5
00:27:54.080                   : :Chapter 6
00:33:47.480                   : :Chapter 7
00:40:37.880                   : :Chapter 8
00:44:16.280                   : :Chapter 9
00:48:30.080                   : :Chapter 10
00:55:42.680                   : :Chapter 11
01:00:57.680                   : :Chapter 12
01:04:09.680                   : :Chapter 13
01:10:23.480                   : :Chapter 14
01:16:59.480                   : :Chapter 15
01:20:47.480                   : :Chapter 16

Скриншоты:





Время раздачи: с 18:00 до 22:00 (до появления первых 3-5 скачавших)
 
Не забывайте говорить Спасибо. Не уходите с раздачи!   
Торрент: Зарегистрирован [23 июн 2017, 20:33] Скачать торрент
Скачать торрент
[ Размер 16.52 КБ / Просмотров 48 ]
Статус:
Проверен
 
.torrent скачан: 0 раз
Хэш: 0e8e168aad765bddb95529c68d142602dd853ef3
Размер: 1.57 ГБ (1 690 308 309 байт)
Стать Автором раздачи
 
 
Раздал: 0 байт
Скачал: 0 байт
Ратио: Inf.
Сообщения: 45211
Зарегистрирован: 05 окт 2014, 15:23


  • Похожие торренты
    Ответы
    Просмотры
    Последнее сообщение

Вернуться в Авторское кино

Ресурс не предоставляет электронные версии произведений, а занимается лишь коллекционированием и каталогизацией ссылок, присылаемых и публикуемых на форуме нашими читателями. Если вы являетесь правообладателем какого-либо представленного материала и не желаете чтобы ссылка на него находилась в нашем каталоге, свяжитесь с нами и мы незамедлительно удалим её. Файлы для обмена на трекере предоставлены пользователями сайта, и администрация не несёт ответственности за их содержание. Просьба не заливать файлы, защищенные авторскими правами, а также файлы нелегального содержания!