(Industrial Metal) [CD] Godflesh - Collection (4CD) - 1989, 1996, FLAC (tracks+.cue), lossless

 
 Статистика раздачи 
Размер: 1.49 ГБ   |  Зарегистрирован: 14 июн 2017, 19:14   |   .torrent скачан: 0 раз
Сидеров: 1  [ 0 байт/сек ]     Личеров: 0  [ 0 байт/сек ]  
  

(Industrial Metal) [CD] Godflesh - Collection (4CD) - 1989, 1996, FLAC (tracks+.cue), lossless

Сообщение Nakazhu » 14 июн 2017, 19:14

Godflesh / Collection (4CD)
Жанр: Industrial Metal
Носитель: CD
Год издания: 1989, 1996
Страна исполнителя (группы): UK
Аудиокодек: FLAC (*.flac)
Тип рипа: tracks+.cue
Битрейт аудио: lossless
Продолжительность: 3:58:22
Источник (релизер): собственный рип
Наличие сканов в содержимом раздачи: нет
Альбомы:
#7701. Like Rats (4:28)
02. Christbait Rising (6:59)
03. Pulp (4:16)
04. Dream Long Dead (5:17)
05. Head Dirt (6:08)
06. Devastator (3:21)
07. Mighty Trust Krusher (5:30)
08. Life Is Easy (4:54)
09. Streetcleaner (6:45)
10. Locust Furnace (4:43)
11. Tiny Tears (3:23)
12. Wound (3:06)
13. Dead Head (4:07)
14. Suction (3:24)
Machine - Rhythm (tracks: 1 to 10)
G. Christian Green - Bass (tracks: 1 to 10)
Justin Broadrick - Guitar, Vocals (tracks: 1 to 10)
Paul Neville - Guitar (tracks: 6 to 10)
Tracks 1-5 recorded/mixed at Soundcheck in Birmingham, May-August 1989. Tracks 6-10 recorded/mixed at Square Dance in Derby, May 1989.
Sleeve erroneously lists tracks 6 and 7 as a single track, and thus only 13 tracks in total. The credits listed in the booklet were apparently lifted from the LP release, as they reference Side One and Side Two; hence no credits for the bonus tracks (11 to 14).
All songs published by Earache Songs U.K.
℗ 1989 Earache Records. Licensed by
Relativity Records, Inc. Made in the U.S.A. (printed on disc).
Published by Earache Songs U.K.
© Earache Records 1989
℗ Earache records 1989
(printed inside the booklet).
℗© 1989 Earache Records. Licensed by
Relativity Records, Inc. Made in the U.S.A.
(printed on booklet and rear cover).
Catalog # printed as 'COMBAT/EARACHE 88561-2023-2' on spines.
Catalog # printed as '88561-2023-2' inside the booklet, and on disc.
Код: Выделить всё
Exact Audio Copy V1.3 from 2. September 2016
EAC extraction logfile from 13. June 2017, 22:49
Godflesh / Streetcleaner
Used drive  : ATAPI   iHAS122   F   Adapter: 1  ID: 0
Read mode               : Secure
Utilize accurate stream : Yes
Defeat audio cache      : Yes
Make use of C2 pointers : No
Read offset correction                      : 6
Overread into Lead-In and Lead-Out          : No
Fill up missing offset samples with silence : Yes
Delete leading and trailing silent blocks   : No
Null samples used in CRC calculations       : Yes
Used interface                              : Native Win32 interface for Win NT & 2000
Gap handling                                : Appended to previous track
Used output format              : User Defined Encoder
Selected bitrate                : 128 kBit/s
Quality                         : High
Add ID3 tag                     : No
Command line compressor         : C:\Program Files (x86)\Exact Audio Copy\Flac\flac.exe
Additional command line options : -V -8 -T "Genre=%genre%" -T "Artist=%artist%" -T "Title=%title%" -T "Album=%albumtitle%" -T "Date=%year%" -T "Tracknumber=%tracknr%" -T "Comment=%comment%" %source%
TOC of the extracted CD
     Track |   Start  |  Length  | Start sector | End sector
    ---------------------------------------------------------
        1  |  0:00.50 |  4:27.55 |        50    |    20129
        2  |  4:28.30 |  6:59.35 |     20130    |    51589
        3  | 11:27.65 |  4:16.67 |     51590    |    70856
        4  | 15:44.57 |  5:17.10 |     70857    |    94641
        5  | 21:01.67 |  6:08.43 |     94642    |   122284
        6  | 27:10.35 |  3:21.25 |    122285    |   137384
        7  | 30:31.60 |  5:26.07 |    137385    |   161841
        8  | 35:57.67 |  4:48.45 |    161842    |   183486
        9  | 40:46.37 |  6:42.63 |    183487    |   213699
       10  | 47:29.25 |  4:44.22 |    213700    |   235021
       11  | 52:13.47 |  3:23.70 |    235022    |   250316
       12  | 55:37.42 |  3:06.58 |    250317    |   264324
       13  | 58:44.25 |  4:07.32 |    264325    |   282881
       14  | 62:51.57 |  3:22.35 |    282882    |   298066
Track  1
     Filename F:\MyCD-iPooh27\01 - Like Rats.wav
     Pre-gap length  0:00:02.50
     Peak level 63.3 %
     Extraction speed 5.9 X
     Track quality 100.0 %
     Test CRC 38BC4482
     Copy CRC 38BC4482
     Accurately ripped (confidence 2)  [49FC007E]  (AR v2)
     Copy OK
Track  2
     Filename F:\MyCD-iPooh27\02 - Christbait Rising.wav
     Pre-gap length  0:00:03.30
     Peak level 69.3 %
     Extraction speed 7.0 X
     Track quality 100.0 %
     Test CRC AD5D5966
     Copy CRC AD5D5966
     Accurately ripped (confidence 2)  [AC4D585F]  (AR v2)
     Copy OK
Track  3
     Filename F:\MyCD-iPooh27\03 - Pulp.wav
     Pre-gap length  0:00:02.15
     Peak level 64.3 %
     Extraction speed 7.4 X
     Track quality 100.0 %
     Test CRC E2068843
     Copy CRC E2068843
     Accurately ripped (confidence 2)  [F4039C13]  (AR v2)
     Copy OK
Track  4
     Filename F:\MyCD-iPooh27\04 - Dream Long Dead.wav
     Pre-gap length  0:00:02.40
     Peak level 71.2 %
     Extraction speed 8.0 X
     Track quality 100.0 %
     Test CRC 52D71F8D
     Copy CRC 52D71F8D
     Accurately ripped (confidence 2)  [2C108563]  (AR v2)
     Copy OK
Track  5
     Filename F:\MyCD-iPooh27\05 - Head Dirt.wav
     Peak level 77.9 %
     Extraction speed 8.7 X
     Track quality 100.0 %
     Test CRC 46421174
     Copy CRC 46421174
     Accurately ripped (confidence 2)  [2D6FC785]  (AR v2)
     Copy OK
Track  6
     Filename F:\MyCD-iPooh27\06 - Devastator.wav
     Pre-gap length  0:00:02.00
     Peak level 58.2 %
     Extraction speed 8.5 X
     Track quality 100.0 %
     Test CRC 5406F6D6
     Copy CRC 5406F6D6
     Accurately ripped (confidence 2)  [ABB50D6B]  (AR v2)
     Copy OK
Track  7
     Filename F:\MyCD-iPooh27\07 - Mighty Trust Crusher.wav
     Pre-gap length  0:00:00.03
     Peak level 62.1 %
     Extraction speed 9.4 X
     Track quality 100.0 %
     Test CRC 0264FEE2
     Copy CRC 0264FEE2
     Accurately ripped (confidence 2)  [10AD9E18]  (AR v2)
     Copy OK
Track  8
     Filename F:\MyCD-iPooh27\08 - Life Is Easy.wav
     Pre-gap length  0:00:02.37
     Peak level 55.3 %
     Extraction speed 9.8 X
     Track quality 100.0 %
     Test CRC 6E718DD6
     Copy CRC 6E718DD6
     Accurately ripped (confidence 2)  [F61DCA28]  (AR v2)
     Copy OK
Track  9
     Filename F:\MyCD-iPooh27\09 - Streetcleaner.wav
     Pre-gap length  0:00:01.37
     Peak level 53.9 %
     Extraction speed 10.6 X
     Track quality 100.0 %
     Test CRC F451E268
     Copy CRC F451E268
     Accurately ripped (confidence 2)  [B4D29C48]  (AR v2)
     Copy OK
Track 10
     Filename F:\MyCD-iPooh27\10 - Locust Furnace.wav
     Pre-gap length  0:00:02.35
     Peak level 57.5 %
     Extraction speed 10.6 X
     Track quality 100.0 %
     Test CRC F61DADFC
     Copy CRC F61DADFC
     Accurately ripped (confidence 2)  [1DD112FD]  (AR v2)
     Copy OK
Track 11
     Filename F:\MyCD-iPooh27\11 - Tiny Tears.wav
     Pre-gap length  0:00:02.10
     Peak level 80.5 %
     Extraction speed 10.4 X
     Track quality 100.0 %
     Test CRC C99E6FD2
     Copy CRC C99E6FD2
     Accurately ripped (confidence 2)  [9BDCAAA9]  (AR v2)
     Copy OK
Track 12
     Filename F:\MyCD-iPooh27\12 - Wound.wav
     Pre-gap length  0:00:02.27
     Peak level 66.9 %
     Extraction speed 10.4 X
     Track quality 100.0 %
     Test CRC AE1E815A
     Copy CRC AE1E815A
     Accurately ripped (confidence 2)  [95CBE9C5]  (AR v2)
     Copy OK
Track 13
     Filename F:\MyCD-iPooh27\13 - Dead Head.wav
     Pre-gap length  0:00:02.58
     Peak level 70.6 %
     Extraction speed 11.1 X
     Track quality 100.0 %
     Test CRC 1688E642
     Copy CRC 1688E642
     Accurately ripped (confidence 2)  [661BA234]  (AR v2)
     Copy OK
Track 14
     Filename F:\MyCD-iPooh27\14 - Suction.wav
     Pre-gap length  0:00:02.17
     Peak level 73.2 %
     Extraction speed 11.0 X
     Track quality 100.0 %
     Test CRC AF001023
     Copy CRC AF001023
     Accurately ripped (confidence 2)  [5C988DBB]  (AR v2)
     Copy OK
All tracks accurately ripped
No errors occurred
End of status report
---- CUETools DB Plugin V2.1.6
[CTDB TOCID: 570egkDnoOZlhiilyXM8zT7juNc-] found
Submit result: 570egkDnoOZlhiilyXM8zT7juNc- has been confirmed
Track | CTDB Status
  1   | (18/18) Accurately ripped
  2   | (17/18) Accurately ripped
  3   | (17/18) Accurately ripped
  4   | (17/18) Accurately ripped
  5   | (17/18) Accurately ripped
  6   | (17/18) Accurately ripped
  7   | (17/18) Accurately ripped
  8   | (17/18) Accurately ripped
  9   | (17/18) Accurately ripped
 10   | (17/18) Accurately ripped
 11   | (17/18) Accurately ripped
 12   | (17/18) Accurately ripped
 13   | (17/18) Accurately ripped
 14   | (17/18) Accurately ripped
==== Log checksum 66C489AD8CAA4849D38BBC842C80518D911E598F348287F60FC0FBC72E3C8A0A ====
Код: Выделить всё
REM DATE 1989
REM DISCID D10F860E
REM COMMENT "ExactAudioCopy v1.3"
PERFORMER "Godflesh"
TITLE "Streetcleaner"
REM COMPOSER ""
FILE "01 - Like Rats.wav" WAVE
  TRACK 01 AUDIO
    TITLE "Like Rats"
    PERFORMER "Godflesh"
    REM COMPOSER ""
    PREGAP 00:00:50
    INDEX 01 00:00:00
  TRACK 02 AUDIO
    TITLE "Christbait Rising"
    PERFORMER "Godflesh"
    REM COMPOSER ""
    INDEX 00 04:24:25
FILE "02 - Christbait Rising.wav" WAVE
    INDEX 01 00:00:00
  TRACK 03 AUDIO
    TITLE "Pulp"
    PERFORMER "Godflesh"
    REM COMPOSER ""
    INDEX 00 06:57:20
FILE "03 - Pulp.wav" WAVE
    INDEX 01 00:00:00
  TRACK 04 AUDIO
    TITLE "Dream Long Dead"
    PERFORMER "Godflesh"
    REM COMPOSER ""
    INDEX 00 04:14:27
FILE "04 - Dream Long Dead.wav" WAVE
    INDEX 01 00:00:00
FILE "05 - Head Dirt.wav" WAVE
  TRACK 05 AUDIO
    TITLE "Head Dirt"
    PERFORMER "Godflesh"
    REM COMPOSER ""
    INDEX 01 00:00:00
  TRACK 06 AUDIO
    TITLE "Devastator"
    PERFORMER "Godflesh"
    REM COMPOSER ""
    INDEX 00 06:06:43
FILE "06 - Devastator.wav" WAVE
    INDEX 01 00:00:00
  TRACK 07 AUDIO
    TITLE "Mighty Trust Crusher"
    PERFORMER "Godflesh"
    REM COMPOSER ""
    INDEX 00 03:21:22
FILE "07 - Mighty Trust Crusher.wav" WAVE
    INDEX 01 00:00:00
  TRACK 08 AUDIO
    TITLE "Life Is Easy"
    PERFORMER "Godflesh"
    REM COMPOSER ""
    INDEX 00 05:23:45
FILE "08 - Life Is Easy.wav" WAVE
    INDEX 01 00:00:00
  TRACK 09 AUDIO
    TITLE "Streetcleaner"
    PERFORMER "Godflesh"
    REM COMPOSER ""
    INDEX 00 04:47:08
FILE "09 - Streetcleaner.wav" WAVE
    INDEX 01 00:00:00
  TRACK 10 AUDIO
    TITLE "Locust Furnace"
    PERFORMER "Godflesh"
    REM COMPOSER ""
    INDEX 00 06:40:28
FILE "10 - Locust Furnace.wav" WAVE
    INDEX 01 00:00:00
  TRACK 11 AUDIO
    TITLE "Tiny Tears"
    PERFORMER "Godflesh"
    REM COMPOSER ""
    INDEX 00 04:42:12
FILE "11 - Tiny Tears.wav" WAVE
    INDEX 01 00:00:00
  TRACK 12 AUDIO
    TITLE "Wound"
    PERFORMER "Godflesh"
    REM COMPOSER ""
    INDEX 00 03:21:43
FILE "12 - Wound.wav" WAVE
    INDEX 01 00:00:00
  TRACK 13 AUDIO
    TITLE "Dead Head"
    PERFORMER "Godflesh"
    REM COMPOSER ""
    INDEX 00 03:04:00
FILE "13 - Dead Head.wav" WAVE
    INDEX 01 00:00:00
  TRACK 14 AUDIO
    TITLE "Suction"
    PERFORMER "Godflesh"
    REM COMPOSER ""
    INDEX 00 04:05:15
FILE "14 - Suction.wav" WAVE
    INDEX 01 00:00:00
#771. Slateman (5:58)
2. Wound '91 (4:26)
3. Cold World (5:280
4. Nihil (5:56)
5. Nihil (Total Belief Mix) (5:38)
6. Nihil (No Belief Mix) (5:37)
1-2. Slateman / Wound '91 (EP) (1991)
Godflesh - J.K. Broadrick, G.C. Green, P. Neville.
Recorded and mixed at Avalanche Studios.
Produced and mixed by J.K. Broadrick/Godflesh.
4-6. Cold World (EP) (1991)
G. C. Green - Bass
J. K. Broadrick - Guitar, Vocals
R. Hampson - Guitar (trk. 4)
Machines - Rhythm & Samples
Recorded & Mixed at Avalanche Studios Sep/Oct 1991
This release has the same catalog number as the Slateman/Wound '91 CD5.
The cover artwork is comprised of the upper portion of the sleeves for both the Slateman and Cold World singles which includes the titles from both discs.
Код: Выделить всё
Exact Audio Copy V1.3 from 2. September 2016
EAC extraction logfile from 14. June 2017, 13:13
Godflesh / Slateman / Cold World
Used drive  : ATAPI   iHAS122   F   Adapter: 1  ID: 0
Read mode               : Secure
Utilize accurate stream : Yes
Defeat audio cache      : Yes
Make use of C2 pointers : No
Read offset correction                      : 6
Overread into Lead-In and Lead-Out          : No
Fill up missing offset samples with silence : Yes
Delete leading and trailing silent blocks   : No
Null samples used in CRC calculations       : Yes
Used interface                              : Native Win32 interface for Win NT & 2000
Gap handling                                : Appended to previous track
Used output format              : User Defined Encoder
Selected bitrate                : 128 kBit/s
Quality                         : High
Add ID3 tag                     : No
Command line compressor         : C:\Program Files (x86)\Exact Audio Copy\Flac\flac.exe
Additional command line options : -V -8 -T "Genre=%genre%" -T "Artist=%artist%" -T "Title=%title%" -T "Album=%albumtitle%" -T "Date=%year%" -T "Tracknumber=%tracknr%" -T "Comment=%comment%" %source%
TOC of the extracted CD
     Track |   Start  |  Length  | Start sector | End sector
    ---------------------------------------------------------
        1  |  0:00.50 |  5:59.00 |        50    |    26974
        2  |  5:59.50 |  4:24.35 |     26975    |    46809
        3  | 10:24.10 |  5:28.02 |     46810    |    71411
        4  | 15:52.12 |  5:55.43 |     71412    |    98079
        5  | 21:47.55 |  5:37.60 |     98080    |   123414
        6  | 27:25.40 |  5:37.50 |    123415    |   148739
Track  1
     Filename F:\MyCD-iPooh27\01 - Slateman.wav
     Pre-gap length  0:00:02.50
     Peak level 95.2 %
     Extraction speed 6.1 X
     Track quality 100.0 %
     Test CRC 32621065
     Copy CRC 32621065
     Accurately ripped (confidence 10)  [BEFE8B4E]  (AR v2)
     Copy OK
Track  2
     Filename F:\MyCD-iPooh27\02 - Wound '91.wav
     Pre-gap length  0:00:03.05
     Peak level 97.1 %
     Extraction speed 6.4 X
     Track quality 100.0 %
     Test CRC BA4E5C24
     Copy CRC BA4E5C24
     Accurately ripped (confidence 10)  [BCD3D372]  (AR v2)
     Copy OK
Track  3
     Filename F:\MyCD-iPooh27\03 - Cold World.wav
     Pre-gap length  0:00:00.20
     Peak level 93.9 %
     Extraction speed 6.3 X
     Track quality 99.9 %
     Test CRC C00FE923
     Copy CRC C00FE923
     Accurately ripped (confidence 10)  [0E99C364]  (AR v2)
     Copy OK
Track  4
     Filename F:\MyCD-iPooh27\04 - Nihil.wav
     Pre-gap length  0:00:00.72
     Peak level 100.0 %
     Extraction speed 6.8 X
     Track quality 99.9 %
     Test CRC B875FA06
     Copy CRC B875FA06
     Accurately ripped (confidence 10)  [A2991D2F]  (AR v2)
     Copy OK
Track  5
     Filename F:\MyCD-iPooh27\05 - Nihil (Total Belief mix).wav
     Pre-gap length  0:00:00.33
     Peak level 94.6 %
     Extraction speed 7.8 X
     Track quality 100.0 %
     Test CRC 454F92DF
     Copy CRC 454F92DF
     Accurately ripped (confidence 10)  [8E239860]  (AR v2)
     Copy OK
Track  6
     Filename F:\MyCD-iPooh27\06 - Nihil (No Belief mix).wav
     Pre-gap length  0:00:00.03
     Peak level 99.8 %
     Extraction speed 7.5 X
     Track quality 99.9 %
     Test CRC 8BF92F7C
     Copy CRC 8BF92F7C
     Accurately ripped (confidence 10)  [E5FA4850]  (AR v2)
     Copy OK
All tracks accurately ripped
No errors occurred
End of status report
---- CUETools DB Plugin V2.1.6
[CTDB TOCID: W3IuENIrnwtSS1KUO0axDPgyEew-] found
Submit result: W3IuENIrnwtSS1KUO0axDPgyEew- has been confirmed
Track | CTDB Status
  1   | (11/11) Accurately ripped
  2   | (11/11) Accurately ripped
  3   | (11/11) Accurately ripped
  4   | (11/11) Accurately ripped
  5   | (11/11) Accurately ripped
  6   | (11/11) Accurately ripped
==== Log checksum A108137C0FEF5F972B6D4761A2B11139F179808EA83D8F22866DDE47032F4F0C ====
Код: Выделить всё
REM DATE 1996
REM DISCID 4B07BF06
REM COMMENT "ExactAudioCopy v1.3"
CATALOG 0000000000000
PERFORMER "Godflesh"
TITLE "Slateman / Cold World"
REM COMPOSER ""
FILE "00 - Slateman.wav" WAVE
  TRACK 01 AUDIO
    TITLE "Slateman"
    PERFORMER "Godflesh"
    REM COMPOSER ""
    INDEX 00 00:00:00
FILE "01 - Slateman.wav" WAVE
    INDEX 01 00:00:00
  TRACK 02 AUDIO
    TITLE "Wound '91"
    PERFORMER "Godflesh"
    REM COMPOSER ""
    INDEX 00 05:55:70
FILE "02 - Wound '91.wav" WAVE
    INDEX 01 00:00:00
  TRACK 03 AUDIO
    TITLE "Cold World"
    PERFORMER "Godflesh"
    REM COMPOSER ""
    INDEX 00 04:24:15
FILE "03 - Cold World.wav" WAVE
    INDEX 01 00:00:00
  TRACK 04 AUDIO
    TITLE "Nihil"
    PERFORMER "Godflesh"
    REM COMPOSER ""
    INDEX 00 05:27:05
FILE "04 - Nihil.wav" WAVE
    INDEX 01 00:00:00
  TRACK 05 AUDIO
    TITLE "Nihil (Total Belief mix)"
    PERFORMER "Godflesh"
    REM COMPOSER ""
    INDEX 00 05:55:10
FILE "05 - Nihil (Total Belief mix).wav" WAVE
    INDEX 01 00:00:00
  TRACK 06 AUDIO
    TITLE "Nihil (No Belief mix)"
    PERFORMER "Godflesh"
    REM COMPOSER ""
    INDEX 00 05:37:57
FILE "06 - Nihil (No Belief mix).wav" WAVE
    INDEX 01 00:00:00
#77
01. Xnoybis (5:54)
02. Bigot (4:34)
03. Black Boned Angel (6:46)
04. Anything Is Mine (4:00)
05. Empyreal (6:02)
06. Crush My Soul (4:27)
07. Body Dome Light (5:30)
08. Toll (4:14)
09. Heartless (5:32)
10. Mantra (7:26)
11. Go Spread Your Wings (23:52)
Код: Выделить всё
Exact Audio Copy V1.3 from 2. September 2016
EAC extraction logfile from 13. June 2017, 19:12
Godflesh / Selfless / Merciless
Used drive  : ATAPI   iHAS122   F   Adapter: 1  ID: 0
Read mode               : Secure
Utilize accurate stream : Yes
Defeat audio cache      : Yes
Make use of C2 pointers : No
Read offset correction                      : 6
Overread into Lead-In and Lead-Out          : No
Fill up missing offset samples with silence : Yes
Delete leading and trailing silent blocks   : No
Null samples used in CRC calculations       : Yes
Used interface                              : Native Win32 interface for Win NT & 2000
Gap handling                                : Appended to previous track
Used output format              : User Defined Encoder
Selected bitrate                : 128 kBit/s
Quality                         : High
Add ID3 tag                     : No
Command line compressor         : C:\Program Files (x86)\Exact Audio Copy\Flac\flac.exe
Additional command line options : -V -8 -T "Genre=%genre%" -T "Artist=%artist%" -T "Title=%title%" -T "Album=%albumtitle%" -T "Date=%year%" -T "Tracknumber=%tracknr%" -T "Comment=%comment%" %source%
TOC of the extracted CD
     Track |   Start  |  Length  | Start sector | End sector
    ---------------------------------------------------------
        1  |  0:00.00 |  5:54.22 |         0    |    26571
        2  |  5:54.22 |  4:33.38 |     26572    |    47084
        3  | 10:27.60 |  6:46.47 |     47085    |    77581
        4  | 17:14.32 |  3:59.33 |     77582    |    95539
        5  | 21:13.65 |  6:02.15 |     95540    |   122704
        6  | 27:16.05 |  4:26.42 |    122705    |   142696
        7  | 31:42.47 |  5:30.50 |    142697    |   167496
        8  | 37:13.22 |  4:13.40 |    167497    |   186511
        9  | 41:26.62 |  5:32.20 |    186512    |   211431
       10  | 46:59.07 |  7:26.35 |    211432    |   244916
       11  | 54:25.42 | 23:50.18 |    244917    |   352184
Track  1
     Filename F:\MyCD-iPooh27\01 - Xnoybis.wav
     Pre-gap length  0:00:02.00
     Peak level 97.1 %
     Extraction speed 6.2 X
     Track quality 100.0 %
     Test CRC 1ACF5137
     Copy CRC 1ACF5137
     Accurately ripped (confidence 5)  [96EBB859]  (AR v2)
     Copy OK
Track  2
     Filename F:\MyCD-iPooh27\02 - Bigot.wav
     Peak level 98.3 %
     Extraction speed 6.8 X
     Track quality 100.0 %
     Test CRC ACB23B2B
     Copy CRC ACB23B2B
     Accurately ripped (confidence 5)  [F334ECB2]  (AR v2)
     Copy OK
Track  3
     Filename F:\MyCD-iPooh27\03 - Black Boned Angel.wav
     Peak level 97.7 %
     Extraction speed 7.6 X
     Track quality 100.0 %
     Test CRC FEDED8B4
     Copy CRC FEDED8B4
     Accurately ripped (confidence 5)  [7EA8F3A7]  (AR v2)
     Copy OK
Track  4
     Filename F:\MyCD-iPooh27\04 - Anything Is Mine.wav
     Peak level 97.7 %
     Extraction speed 7.9 X
     Track quality 100.0 %
     Test CRC 2F7B96F6
     Copy CRC 2F7B96F6
     Accurately ripped (confidence 5)  [6DEFCDAB]  (AR v2)
     Copy OK
Track  5
     Filename F:\MyCD-iPooh27\05 - Empyreal.wav
     Peak level 97.7 %
     Extraction speed 8.1 X
     Track quality 99.9 %
     Test CRC 695B4472
     Copy CRC 695B4472
     Accurately ripped (confidence 5)  [DAF0D6A4]  (AR v2)
     Copy OK
Track  6
     Filename F:\MyCD-iPooh27\06 - Crush My Soul.wav
     Peak level 97.7 %
     Extraction speed 8.0 X
     Track quality 99.9 %
     Test CRC 9F65595E
     Copy CRC 9F65595E
     Accurately ripped (confidence 5)  [31CA031D]  (AR v2)
     Copy OK
Track  7
     Filename F:\MyCD-iPooh27\07 - Body Dome Light.wav
     Peak level 97.7 %
     Extraction speed 8.8 X
     Track quality 99.9 %
     Test CRC ED752837
     Copy CRC ED752837
     Accurately ripped (confidence 5)  [CBABDF33]  (AR v2)
     Copy OK
Track  8
     Filename F:\MyCD-iPooh27\08 - Toll.wav
     Peak level 97.7 %
     Extraction speed 9.7 X
     Track quality 100.0 %
     Test CRC 001FA146
     Copy CRC 001FA146
     Accurately ripped (confidence 5)  [21EB8B48]  (AR v2)
     Copy OK
Track  9
     Filename F:\MyCD-iPooh27\09 - Heartless.wav
     Peak level 97.9 %
     Extraction speed 10.4 X
     Track quality 100.0 %
     Test CRC 46EEAF4F
     Copy CRC 46EEAF4F
     Accurately ripped (confidence 5)  [8358F7BF]  (AR v2)
     Copy OK
Track 10
     Filename F:\MyCD-iPooh27\10 - Mantra.wav
     Peak level 98.0 %
     Extraction speed 11.1 X
     Track quality 100.0 %
     Test CRC 7C75B1D6
     Copy CRC 7C75B1D6
     Accurately ripped (confidence 5)  [EB6EE67C]  (AR v2)
     Copy OK
Track 11
     Filename F:\MyCD-iPooh27\11 - Go Spread Your Wings.wav
     Peak level 97.7 %
     Extraction speed 11.4 X
     Track quality 99.9 %
     Test CRC 5514951E
     Copy CRC 5514951E
     Accurately ripped (confidence 5)  [F436C976]  (AR v2)
     Copy OK
All tracks accurately ripped
No errors occurred
End of status report
---- CUETools DB Plugin V2.1.6
[CTDB TOCID: 7rJu4GxuoXwU6MrIPMbaXS0D7y8-] found
Submit result: 7rJu4GxuoXwU6MrIPMbaXS0D7y8- has been confirmed
Track | CTDB Status
  1   | (42/43) Accurately ripped
  2   | (43/43) Accurately ripped
  3   | (43/43) Accurately ripped
  4   | (43/43) Accurately ripped
  5   | (43/43) Accurately ripped
  6   | (43/43) Accurately ripped
  7   | (43/43) Accurately ripped
  8   | (43/43) Accurately ripped
  9   | (43/43) Accurately ripped
 10   | (43/43) Accurately ripped
 11   | (42/43) Accurately ripped
==== Log checksum 5F9415ED9548029CD0FE696C61B9997403C61C63F7CB0777EFCE8BF757DB0792 ====
Код: Выделить всё
REM DATE 1996
REM DISCID 9B12570B
REM COMMENT "ExactAudioCopy v1.3"
CATALOG 0000000000000
PERFORMER "Godflesh"
TITLE "Selfless / Merciless"
REM COMPOSER ""
FILE "01 - Xnoybis.wav" WAVE
  TRACK 01 AUDIO
    TITLE "Xnoybis"
    PERFORMER "Godflesh"
    REM COMPOSER ""
    INDEX 01 00:00:00
FILE "02 - Bigot.wav" WAVE
  TRACK 02 AUDIO
    TITLE "Bigot"
    PERFORMER "Godflesh"
    REM COMPOSER ""
    INDEX 01 00:00:00
FILE "03 - Black Boned Angel.wav" WAVE
  TRACK 03 AUDIO
    TITLE "Black Boned Angel"
    PERFORMER "Godflesh"
    REM COMPOSER ""
    INDEX 01 00:00:00
FILE "04 - Anything Is Mine.wav" WAVE
  TRACK 04 AUDIO
    TITLE "Anything Is Mine"
    PERFORMER "Godflesh"
    REM COMPOSER ""
    INDEX 01 00:00:00
FILE "05 - Empyreal.wav" WAVE
  TRACK 05 AUDIO
    TITLE "Empyreal"
    PERFORMER "Godflesh"
    REM COMPOSER ""
    INDEX 01 00:00:00
FILE "06 - Crush My Soul.wav" WAVE
  TRACK 06 AUDIO
    TITLE "Crush My Soul"
    PERFORMER "Godflesh"
    REM COMPOSER ""
    INDEX 01 00:00:00
FILE "07 - Body Dome Light.wav" WAVE
  TRACK 07 AUDIO
    TITLE "Body Dome Light"
    PERFORMER "Godflesh"
    REM COMPOSER ""
    INDEX 01 00:00:00
FILE "08 - Toll.wav" WAVE
  TRACK 08 AUDIO
    TITLE "Toll"
    PERFORMER "Godflesh"
    REM COMPOSER ""
    INDEX 01 00:00:00
FILE "09 - Heartless.wav" WAVE
  TRACK 09 AUDIO
    TITLE "Heartless"
    PERFORMER "Godflesh"
    REM COMPOSER ""
    INDEX 01 00:00:00
FILE "10 - Mantra.wav" WAVE
  TRACK 10 AUDIO
    TITLE "Mantra"
    PERFORMER "Godflesh"
    REM COMPOSER ""
    INDEX 01 00:00:00
FILE "11 - Go Spread Your Wings.wav" WAVE
  TRACK 11 AUDIO
    TITLE "Go Spread Your Wings"
    PERFORMER "Godflesh"
    REM COMPOSER ""
    INDEX 01 00:00:00
01. Merciless (6:17)
02. Blind (7:16)
03. Unworthy (7:14)
04. Flowers (7:34)
05. Crush My Soul (Ultramix) (15:01)
06. Xnoybis (Psychofuckdub) (17:26)
Код: Выделить всё
Exact Audio Copy V1.3 from 2. September 2016
EAC extraction logfile from 14. June 2017, 12:28
Godflesh / Selfless / Merciless
Used drive  : ATAPI   iHAS122   F   Adapter: 1  ID: 0
Read mode               : Secure
Utilize accurate stream : Yes
Defeat audio cache      : Yes
Make use of C2 pointers : No
Read offset correction                      : 6
Overread into Lead-In and Lead-Out          : No
Fill up missing offset samples with silence : Yes
Delete leading and trailing silent blocks   : No
Null samples used in CRC calculations       : Yes
Used interface                              : Native Win32 interface for Win NT & 2000
Gap handling                                : Appended to previous track
Used output format              : User Defined Encoder
Selected bitrate                : 128 kBit/s
Quality                         : High
Add ID3 tag                     : No
Command line compressor         : C:\Program Files (x86)\Exact Audio Copy\Flac\flac.exe
Additional command line options : -V -8 -T "Genre=%genre%" -T "Artist=%artist%" -T "Title=%title%" -T "Album=%albumtitle%" -T "Date=%year%" -T "Tracknumber=%tracknr%" -T "Comment=%comment%" %source%
TOC of the extracted CD
     Track |   Start  |  Length  | Start sector | End sector
    ---------------------------------------------------------
        1  |  4:27.26 |  6:15.67 |     20051    |    48242
        2  | 10:43.18 |  7:16.11 |     48243    |    80953
        3  | 17:59.29 |  7:13.46 |     80954    |   113474
        4  | 25:13.00 |  7:35.24 |    113475    |   147623
        5  | 32:48.24 | 14:58.40 |    147624    |   215013
        6  | 47:46.64 | 17:29.65 |    215014    |   293753
Track  1
     Filename F:\MyCD-iPooh27\01 - Merciless.wav
     Pre-gap length  0:04:29.26
     Peak level 95.5 %
     Extraction speed 6.4 X
     Track quality 100.0 %
     Test CRC D78152A3
     Copy CRC D78152A3
     Accurately ripped (confidence 6)  [9C70BAD9]  (AR v2)
     Copy OK
Track  2
     Filename F:\MyCD-iPooh27\02 - Blind.wav
     Peak level 95.5 %
     Extraction speed 7.2 X
     Track quality 100.0 %
     Test CRC C555383E
     Copy CRC C555383E
     Accurately ripped (confidence 6)  [F7DFE27D]  (AR v2)
     Copy OK
Track  3
     Filename F:\MyCD-iPooh27\03 - Unworthy.wav
     Peak level 95.5 %
     Extraction speed 7.7 X
     Track quality 100.0 %
     Test CRC 4F2C4562
     Copy CRC 4F2C4562
     Accurately ripped (confidence 6)  [4B0557A7]  (AR v2)
     Copy OK
Track  4
     Filename F:\MyCD-iPooh27\04 - Flowers.wav
     Peak level 95.5 %
     Extraction speed 8.3 X
     Track quality 100.0 %
     Test CRC E26F844D
     Copy CRC E26F844D
     Accurately ripped (confidence 6)  [D70AD1EA]  (AR v2)
     Copy OK
Track  5
     Filename F:\MyCD-iPooh27\05 - Crush My Soul (Ultramix).wav
     Peak level 95.5 %
     Extraction speed 6.1 X
     Track quality 100.0 %
     Test CRC 2ECEA434
     Copy CRC 2ECEA434
     Accurately ripped (confidence 6)  [DC3E964D]  (AR v2)
     Copy OK
Track  6
     Filename F:\MyCD-iPooh27\06 - Xnoybis (Psychofuckdub).wav
     Peak level 95.5 %
     Extraction speed 5.7 X
     Track quality 99.9 %
     Test CRC 8474F560
     Copy CRC 8474F560
     Accurately ripped (confidence 6)  [3717F3B6]  (AR v2)
     Copy OK
All tracks accurately ripped
No errors occurred
End of status report
---- CUETools DB Plugin V2.1.6
[CTDB TOCID: kG0dgLYAxLBAQC9UhUW2p6ZP81M-] found
Submit result: kG0dgLYAxLBAQC9UhUW2p6ZP81M- has been confirmed
Track | CTDB Status
  1   | (2/2) Accurately ripped
  2   | (2/2) Accurately ripped
  3   | (2/2) Accurately ripped
  4   | (2/2) Accurately ripped
  5   | (2/2) Accurately ripped
  6   | (2/2) Accurately ripped
==== Log checksum A6B1233CF1664454C80AA529F9FE754C17C7E33BA0DC06CC1B644823069E44B9 ====
Код: Выделить всё
REM DATE 1996
REM DISCID 5F0E4106
REM COMMENT "ExactAudioCopy v1.3"
CATALOG 0000000000000
PERFORMER "Godflesh"
TITLE "Selfless / Merciless"
REM COMPOSER ""
FILE "01 - Merciless.wav" WAVE
  TRACK 01 AUDIO
    TITLE "Merciless"
    PERFORMER "Godflesh"
    REM COMPOSER ""
    PREGAP 04:27:26
    INDEX 01 00:00:00
FILE "02 - Blind.wav" WAVE
  TRACK 02 AUDIO
    TITLE "Blind"
    PERFORMER "Godflesh"
    REM COMPOSER ""
    INDEX 01 00:00:00
FILE "03 - Unworthy.wav" WAVE
  TRACK 03 AUDIO
    TITLE "Unworthy"
    PERFORMER "Godflesh"
    REM COMPOSER ""
    INDEX 01 00:00:00
FILE "04 - Flowers.wav" WAVE
  TRACK 04 AUDIO
    TITLE "Flowers"
    PERFORMER "Godflesh"
    REM COMPOSER ""
    INDEX 01 00:00:00
FILE "05 - Crush My Soul (Ultramix).wav" WAVE
  TRACK 05 AUDIO
    TITLE "Crush My Soul (Ultramix)"
    PERFORMER "Godflesh"
    REM COMPOSER ""
    INDEX 01 00:00:00
FILE "06 - Xnoybis (Psychofuckdub).wav" WAVE
  TRACK 06 AUDIO
    TITLE "Xnoybis (Psychofuckdub)"
    PERFORMER "Godflesh"
    REM COMPOSER ""
    INDEX 01 00:00:00
selfless (1994) (disc one)
justin k. broadrick - guitar, vocals
g.c. green - bass
machines - rhythm, synths, samples
all lyrics by broadrick - music by broadrick/green
recorded mixed and produced by broadrick/green avalanche, jan - may '94
merciless (1994) (disc two, 1-4)
justin k. broadrick - guitar, vocals
g.c. green - bass
track 1 recorded digitally dec. '93
track 2 & 3 (biomechanical mixes) recorded 8, 16 and digital 24. '91-'93
track 4 (don't bring me) flowers remixed dec. '93.
all sounds are guitar samples. analogue to digital.
all mixed at avalanche, birmingham, january '94
robert hampson appears on tracks 3 and 4 courtesy of Beggars Banquet.
Re-issue of 2 previously released albums. Comes in a Multi-Image™ CD case which shows both record covers.
The "Merciless" disc also contains 2 tracks from the "Crush My Soul" EP as bonus tracks.
Manufactured in the USA. Licensed from Earache UK to Earache US.
По просьбе интернет-друзей решил выложить и здесь.
1. Streetcleaner - первой американское издание Combat/Earache (https://www.discogs.com/Godflesh-Streetcleaner/release/91167). Какие издания здесь - и - не знаю, так что решать вам...
2. А таких изданий-компиляций на рутрекере не было - Slateman / Cold World (https://www.discogs.com/release/233159) и Selfless / Merciless (2CD) (https://www.discogs.com/Godflesh-Selfless-Merciless/release/1660278 )...
 
Не забывайте говорить Спасибо. Не уходите с раздачи!   
Торрент: Зарегистрирован [14 июн 2017, 19:14] Скачать торрент
Скачать торрент
[ Размер 23.49 КБ / Просмотров 42 ]
Статус:
Проверен
 
.torrent скачан: 0 раз
Хэш: ab5ffdb7a6c78c169bcc8237bc6d8de5c199c482
Размер: 1.49 ГБ (1 604 950 370 байт)
Стать Автором раздачи
 
 
Раздал: 0 байт
Скачал: 0 байт
Ратио: Inf.
Сообщения: 487468
Зарегистрирован: 17 апр 2014, 13:57


  • Похожие торренты
    Ответы
    Просмотры
    Последнее сообщение

Вернуться в Avant-garde, Experimental Metal (lossless)

Ресурс не предоставляет электронные версии произведений, а занимается лишь коллекционированием и каталогизацией ссылок, присылаемых и публикуемых на форуме нашими читателями. Если вы являетесь правообладателем какого-либо представленного материала и не желаете чтобы ссылка на него находилась в нашем каталоге, свяжитесь с нами и мы незамедлительно удалим её. Файлы для обмена на трекере предоставлены пользователями сайта, и администрация не несёт ответственности за их содержание. Просьба не заливать файлы, защищенные авторскими правами, а также файлы нелегального содержания!
cron