Вальпургиева ночь (Марк Захаров) [2017, трагикомедия, DVB] Театр "Ленком"

 
 Статистика раздачи 
Размер: 4.98 ГБ   |  Зарегистрирован: 12 июн 2017, 01:36   |   .torrent скачан: 1 раз
Сидеров: 1  [ 0 байт/сек ]     Личеров: 0  [ 0 байт/сек ]  
  

Вальпургиева ночь (Марк Захаров) [2017, трагикомедия, DVB] Театр "Ленком"

Сообщение Nakazhu » 12 июн 2017, 01:36

Вальпургиева ночь (2 действия)
Название театра: Театр "Ленком"
Жанр: трагикомедия
Год выпуска: 2017
Премьера: 14.03.2015
Продолжительность: 01:00:56 + 01:00:22
Режиссёр: Марк Захаров
В ролях: Игорь Миркурбанов, Александра Захарова, Виктор Раков, Виктор Вержбицкий, Полина Чекан, Сергей Степанченко, Дмитрий Гизбрехт, Анастасия Марчук, Алиса Сапегина, Татьяна Збруева, Анна Зайкова, Алексей Скуратов, Геннадий Козлов, Екатерина Мигицко, Татьяна Збруева, Алиса Сапегина, Максим Амельченко, Виталий Боровик, Кирилл Петров, Алексей Поляков, Иван Лешук, Даня Алекса, Игорь Назаров
Описание: Венедикт Ерофеев использовал в своих сочинениях некоторые «народные грубости». Эти «грубости» – неотъемлемая часть нашего языка и сознания, нашей истории и культуры. Если их исключить, будет похоже на предательство образной системы писателя, предательство правды жизни. Тем не менее, мы используем их в спектакле осторожно и в ограниченном количестве.
Название спектаклю дала одноимённая пьеса Венедикта Ерофеева. Но, на самом деле, мы использовали в той или иной мере все основные его произведения, включая знаменитую поэму «Москва-Петушки», «Записки психопата», пьесу «Вальпургиева ночь», дневники писателя и др. Венедикт Ерофеев очень интересный, своеобразный, не похожий ни на кого писатель. В созданном им сюрреалистическом аномальном мире он коснулся болевых точек и проблем, которые волнуют нас и сегодня. Мы задумали показать творчество Ерофеева как квинтэссенцию некоторых сторон русской жизни, с его помощью заглянуть в наше сознание и подсознание, причём так, чтобы спектакль получился и эпатажным, и парадоксальным. Но главное – достаточно серьёзным.
Доп. информация:
Запись потока *.ts со спутника Экспресс АМ7, 40° в.д., удаление рекламы программой VideoReDo.
Семпл: http://multi-up.com/1157589
Качество видео: DVB
Формат видео: TS
Видео: MPEG2 Video, 720(768)x576 (4:3), 25,000 кадров/сек, 5332 Кбит/сек
Аудио: MPEG Audio, 48,0 КГц, 256 Кбит/сек, 2 канала
Общее
Идентификатор : 1 (0x1)
Полное имя : D:\MPG\ВАЛЬПУРГИЕВА НОЧЬ\ВАЛЬПУРГИЕВА НОЧЬ 1 (Kultura 40).ts
Формат : MPEG-TS
Размер файла : 2,50 Гбайт
Продолжительность : 1 ч. 0 м.
Режим общего битрейта : Переменный
Общий поток : 5881 Кбит/сек
Видео
Идентификатор : 514 (0x202)
Идентификатор меню : 1 (0x1)
Формат : MPEG Video
Версия формата : Version 2
Профиль формата : Main@Main
Параметр BVOP формата : Да
Параметр матрицы формата : Выборочная
Параметр GOP формата : M=3, N=15
Структура изображения : Frame
Идентификатор кодека : 2
Продолжительность : 1 ч. 0 м.
Вид битрейта : Переменный
Битрейт : 5332 Кбит/сек
Максимальный битрейт : 15,0 Мбит/сек
Ширина : 720 пикселей
Высота : 576 пикселей
Соотношение сторон : 4:3
Частота кадров : 25,000 кадров/сек
Стандарт вещания : PAL
Цветовое пространство : YUV
Субдискретизация насыщенности : 4:2:0
Битовая глубина : 8 бит
Тип развёртки : Чересстрочная
Порядок развёртки : Верхнее поле первое
Метод сжатия : С потерями
Бит/(Пиксели*Кадры) : 0.514
Временной код первого кадра : 00:00:00:00
Оригинал временного кода : Group of pictures header
GOP, открыто/закрыто : Открыто
GOP, открыто/закрыто на первом кадре : Закрыто
Размер потока : 2,27 Гбайт (91%)
Аудио
Идентификатор : 670 (0x29E)
Идентификатор меню : 1 (0x1)
Формат : MPEG Audio
Версия формата : Version 1
Профиль формата : Layer 2
Идентификатор кодека : 3
Продолжительность : 1 ч. 0 м.
Вид битрейта : Постоянный
Битрейт : 256 Кбит/сек
Каналы : 2 канала
Частота : 48,0 КГц
Метод сжатия : С потерями
Задержка видео : 3 мс.
Размер потока : 112 Мбайт (4%)
Язык : English
Текст
Идентификатор : 573 (0x23D)-758
Идентификатор меню : 1 (0x1)
Формат : Teletext Subtitle
Язык : Russian
Язык, дополнительно : For hearing impaired people
Общее
Идентификатор : 1 (0x1)
Полное имя : D:\MPG\ВАЛЬПУРГИЕВА НОЧЬ\ВАЛЬПУРГИЕВА НОЧЬ 2 (Kultura 40).ts
Формат : MPEG-TS
Размер файла : 2,48 Гбайт
Продолжительность : 1 ч. 0 м.
Режим общего битрейта : Переменный
Общий поток : 5881 Кбит/сек
Видео
Идентификатор : 514 (0x202)
Идентификатор меню : 1 (0x1)
Формат : MPEG Video
Версия формата : Version 2
Профиль формата : Main@Main
Параметр BVOP формата : Да
Параметр матрицы формата : Выборочная
Параметр GOP формата : M=3, N=15
Структура изображения : Frame
Идентификатор кодека : 2
Продолжительность : 1 ч. 0 м.
Вид битрейта : Переменный
Битрейт : 5332 Кбит/сек
Максимальный битрейт : 15,0 Мбит/сек
Ширина : 720 пикселей
Высота : 576 пикселей
Соотношение сторон : 4:3
Частота кадров : 25,000 кадров/сек
Стандарт вещания : PAL
Цветовое пространство : YUV
Субдискретизация насыщенности : 4:2:0
Битовая глубина : 8 бит
Тип развёртки : Чересстрочная
Порядок развёртки : Верхнее поле первое
Метод сжатия : С потерями
Бит/(Пиксели*Кадры) : 0.514
Временной код первого кадра : 00:00:00:00
Оригинал временного кода : Group of pictures header
GOP, открыто/закрыто : Открыто
Размер потока : 2,25 Гбайт (91%)
Аудио
Идентификатор : 670 (0x29E)
Идентификатор меню : 1 (0x1)
Формат : MPEG Audio
Версия формата : Version 1
Профиль формата : Layer 2
Идентификатор кодека : 3
Продолжительность : 1 ч. 0 м.
Вид битрейта : Постоянный
Битрейт : 256 Кбит/сек
Каналы : 2 канала
Частота : 48,0 КГц
Метод сжатия : С потерями
Задержка видео : 19 мс.
Размер потока : 111 Мбайт (4%)
Язык : English
Текст
Идентификатор : 573 (0x23D)-758
Идентификатор меню : 1 (0x1)
Формат : Teletext Subtitle
Язык : Russian
Язык, дополнительно : For hearing impaired people
 
Не забывайте говорить Спасибо. Не уходите с раздачи!   
Торрент: Зарегистрирован [12 июн 2017, 01:36] Скачать торрент
Скачать торрент
[ Размер 25.52 КБ / Просмотров 19 ]
Статус:
Проверен
 
.torrent скачан: 1 раз
Хэш: 7df99e2a7cb1d644fe489a29340b51880f5fc5b3
Размер: 4.98 ГБ (5 351 626 612 байт)
Стать Автором раздачи
 
 
Раздал: 0 байт
Скачал: 0 байт
Ратио: Inf.
Сообщения: 487468
Зарегистрирован: 17 апр 2014, 13:57


  • Похожие торренты
    Ответы
    Просмотры
    Последнее сообщение

Вернуться в Театр

Ресурс не предоставляет электронные версии произведений, а занимается лишь коллекционированием и каталогизацией ссылок, присылаемых и публикуемых на форуме нашими читателями. Если вы являетесь правообладателем какого-либо представленного материала и не желаете чтобы ссылка на него находилась в нашем каталоге, свяжитесь с нами и мы незамедлительно удалим её. Файлы для обмена на трекере предоставлены пользователями сайта, и администрация не несёт ответственности за их содержание. Просьба не заливать файлы, защищенные авторскими правами, а также файлы нелегального содержания!
cron