Али-Баба и сорок разбойников / Али-Баба и 40 разбойников (Олег Рябоконь) [1983, сказка, музыкальный, фильм-спектакль, DVB-AVC]

 
 Статистика раздачи 
Размер: 1.55 ГБ   |  Зарегистрирован: 08 июн 2017, 12:05   |   .torrent скачан: 0 раз
Сидеров: 1  [ 0 байт/сек ]     Личеров: 0  [ 0 байт/сек ]  
  

Али-Баба и сорок разбойников / Али-Баба и 40 разбойников (Олег Рябоконь) [1983, сказка, музыкальный, фильм-спектакль, DVB-AVC]

Сообщение Nakazhu » 08 июн 2017, 12:05

Али-Баба и сорок разбойников
Жанр: музыкальный, фильм-спектакль, сказка
Год выпуска: 1983
Продолжительность: 01:13:42
Режиссёр: Олег Рябоконь
В ролях:
Мустафа, почтенный сапожник — Вениамин Смехов
Прохожий, собиратель историй — Леонид Филатов
Али-Баба — Олег Табаков
Зейнаб, его жена — Татьяна Никитина
Касым, его брат — Сергей Юрский
Фатима, жена Касыма — Наталья Тенякова
Хасан, атаман разбойников — Армен Джигарханян
Ахмед — Изиль Заблудовский
Мухаммед «Сорви-Голова», разбойник — Евгений Тиличеев
а также Виктор Костецкий, Владимир Курашкин, Станислав Соколов, В. Никитин
Описание: Музыкальная сказка для детей… и взрослых.
Как бывает в сказке, богатство само находит доброго человека. Надо лишь вовремя оказаться в нужном месте и сказать: "Сезам, откройся!"
Доп. информация: запись с IPTV в Беларуси. В начале - возрастное ограничение (см. последний скриншот).
Производство: Лентелефильм
Автор сценария: Вениамин Смехов
Композиторы: Виктор Берковский, Сергей Никитин
Оператор: Николай Горский
Художник: Лариса Луконина
В фильме использована фонограмма фирмы "Мелодия" (1981) с участием инструментального ансамбля "Мелодия" п/у Г.Гараняна, вокального ансамбля "Панорама" п/у Михаила Ганеева. В эпизодах снимались артисты балета ленинградских музыкальных театров; балетмейстер Н.Остальцов.
Качество видео: DVB
Формат видео: MKV
Видео: AVC (H264), 720x576@785x576 (4:3), анаморф, 25 fps, 2762 kbps
Аудио: MP2, 192 kbps, 2 channels, 48 kHz
Код: Выделить всё
General
Unique ID                                : 230068027661190804750837251809222524073 (0xAD157D8902F2B99481D4EC367FBAFCA9)
Complete name                            : C:\Hamlet.dvbts\Али-Баба и сорок разбойников.mkv
Format                                   : Matroska
Format version                           : Version 2
File size                                : 1.55 GiB
Duration                                 : 1 h 13 min
Overall bit rate                         : 3 014 kb/s
Writing application                      : Lavf54.63.104
Writing library                          : Lavf54.63.104
Video
ID                                       : 1
Format                                   : AVC
Format/Info                              : Advanced Video Codec
Format profile                           : High@L3
Format settings, CABAC                   : Yes
Format settings, ReFrames                : 4 frames
Codec ID                                 : V_MPEG4/ISO/AVC
Duration                                 : 1 h 13 min
Bit rate                                 : 2 762 kb/s
Width                                    : 720 pixels
Height                                   : 576 pixels
Display aspect ratio                     : 4:3
Original display aspect ratio            : 4:3
Frame rate mode                          : Constant
Frame rate                               : 25.000 FPS
Standard                                 : Component
Color space                              : YUV
Chroma subsampling                       : 4:2:0
Bit depth                                : 8 bits
Scan type                                : Interlaced
Scan type, store method                  : Separated fields
Scan order                               : Top Field First
Bits/(Pixel*Frame)                       : 0.266
Stream size                              : 1.42 GiB (92%)
Default                                  : No
Forced                                   : No
Color range                              : Limited
Color primaries                          : BT.601 PAL
Transfer characteristics                 : BT.470 System B, BT.470 System G
Matrix coefficients                      : BT.601
Audio
ID                                       : 2
Format                                   : MPEG Audio
Format version                           : Version 1
Format profile                           : Layer 2
Codec ID                                 : A_MPEG/L2
Codec ID/Hint                            : MP2
Duration                                 : 1 h 13 min
Bit rate mode                            : Constant
Bit rate                                 : 192 kb/s
Channel(s)                               : 2 channels
Sampling rate                            : 48.0 kHz
Compression mode                         : Lossy
Stream size                              : 101 MiB (6%)
Language                                 : Russian
Default                                  : Yes
Forced                                   : No
 
Не забывайте говорить Спасибо. Не уходите с раздачи!   
Торрент: Зарегистрирован [08 июн 2017, 12:05] Для скачивания .torrent
необходима регистрация
Или скачать с помощью
MediaGet
Статус:
Проверен
 
.torrent скачан: 0 раз
Хэш: 457374ff4c7e277717523787f966c73e8c1db3b7
Размер: 1.55 ГБ (1 665 978 450 байт)
Стать Автором раздачи
 
 
Раздал: 0 байт
Скачал: 0 байт
Ратио: Inf.
Сообщения: 487468
Зарегистрирован: 17 апр 2014, 13:57


  • Похожие торренты
    Ответы
    Просмотры
    Последнее сообщение

Вернуться в Театр

Ресурс не предоставляет электронные версии произведений, а занимается лишь коллекционированием и каталогизацией ссылок, присылаемых и публикуемых на форуме нашими читателями. Если вы являетесь правообладателем какого-либо представленного материала и не желаете чтобы ссылка на него находилась в нашем каталоге, свяжитесь с нами и мы незамедлительно удалим её. Файлы для обмена на трекере предоставлены пользователями сайта, и администрация не несёт ответственности за их содержание. Просьба не заливать файлы, защищенные авторскими правами, а также файлы нелегального содержания!
cron