(Soundtrack) Геннадий Гладков - Формула любви. Дом, который построил Свифт. Обыкновенное чудо - 2002, FLAC (tracks+.cue), lossless

 
 Статистика раздачи 
Размер: 294.9 МБ   |  Зарегистрирован: 23 май 2017, 12:10   |   .torrent скачан: 0 раз
Сидеров: 1  [ 0 байт/сек ]     Личеров: 0  [ 0 байт/сек ]  
  

(Soundtrack) Геннадий Гладков - Формула любви. Дом, который построил Свифт. Обыкновенное чудо - 2002, FLAC (tracks+.cue), lossless

Сообщение Nakazhu » 23 май 2017, 12:10

Геннадий Гладков - Формула любви. Дом, который построил Свифт. Обыкновенное чудо
Жанр: Soundtrack
Год выпуска диска: 2002
Производитель диска: Россия
Аудио кодек: FLAC
Тип рипа: tracks+.cue
Битрейт аудио: lossless
Продолжительность: 51min
Трэклист:
1. Начало'Фортуна'
2. Песня Алёши
3. Монолог доктора
4. Поездка Алёши к графу
5. Диалог слуг графа
6. Уно моменто с речетативом
7. Приезд графа к Алексею
8. Встреча и обед графа
9. Неаполитанская песня
10. Диалог с селянкой
11. Превращение статуи
12. Размышления графа
13. Финал
14. Лей,ливень
15. Шествие с огнями
16. Песня Эстер
17. Рождение Гулливера
18. Финал
19. Песня волшебника
20. Прощальная песня
Код: Выделить всё
Exact Audio Copy V0.99 prebeta 4 from 23. January 2008
Отчёт EAC об извлечении, выполненном 6. мая 2009, 14:50
Various Artists / Формула любви. Дом, который построил Свифт. Обыкновенное чудо
Дисковод: SONY    CD-RW  CRX320E   Adapter: 1  ID: 1
Режим чтения                 : Достоверность
Использование точного потока : Да
Отключение кэша аудио        : Да
Использование указателей C2  : Нет
Коррекция смещения при чтении                     : 6
Способность читать области Lead-in и Lead-out     : Нет
Заполнение пропущенных сэмплов тишиной            : Да
Удаление блоков с тишиной в начале и конце        : Нет
При вычислениях CRC использовались нулевые сэмплы : Да
Интерфейс                                         : Установленный внешний ASPI-интерфейс
Обработка зазоров                                 : Не обнаружено, добавлено к предыдущему треку
Выходной формат          : Пользовательский кодировщик
Выбранный битрейт        : 768 kBit/s
Качество                 : Высокий
Добавление ID3-тэга      : Нет
Утилита сжатия           : C:\Program Files\Exact Audio Copy\FLAC\FLAC.EXE
Дополнительные параметры : -V -8 -T "artist=%a" -T "title=%t" -T "album=%g" -T "date=%y" -T "tracknumber=%n" -T "genre=%m" %s
TOC извлечённого CD
     Трек |   Старт  | Длительность | Начальный сектор | Конечный сектор
    ---------------------------------------------------------------------
       1  |  0:00.00 |    2:38.09   |           0      |      11858
       2  |  2:38.09 |    2:12.35   |       11859      |      21793
       3  |  4:50.44 |    0:23.56   |       21794      |      23574
       4  |  5:14.25 |    0:29.64   |       23575      |      25813
       5  |  5:44.14 |    0:49.62   |       25814      |      29550
       6  |  6:34.01 |    1:45.20   |       29551      |      37445
       7  |  8:19.21 |    1:03.04   |       37446      |      42174
       8  |  9:22.25 |    3:59.02   |       42175      |      60101
       9  | 13:21.27 |    1:53.73   |       60102      |      68649
      10  | 15:15.25 |    2:50.27   |       68650      |      81426
      11  | 18:05.52 |    1:07.44   |       81427      |      86495
      12  | 19:13.21 |    1:10.23   |       86496      |      91768
      13  | 20:23.44 |    6:35.00   |       91769      |     121393
      14  | 26:58.44 |    1:19.32   |      121394      |     127350
      15  | 28:18.01 |    3:25.45   |      127351      |     142770
      16  | 31:43.46 |    2:34.05   |      142771      |     154325
      17  | 34:17.51 |    2:20.14   |      154326      |     164839
      18  | 36:37.65 |    5:49.17   |      164840      |     191031
      19  | 42:27.07 |    3:38.03   |      191032      |     207384
      20  | 46:05.10 |    5:03.44   |      207385      |     230153
Трек  1
     Имя файла C:\Documents and Settings\ЮРА\Мои документы\Моя музыка\геннадий гладков\Начло 'Фортуна'.wav
     Пиковый уровень 92.9 %
     Качество трека 100.0 %
     CRC копии 2FFD7BC9
     Копирование... OK
Трек  2
     Имя файла C:\Documents and Settings\ЮРА\Мои документы\Моя музыка\геннадий гладков\Песня Алёши.wav
     Пиковый уровень 100.0 %
     Качество трека 100.0 %
     CRC копии 50F72F86
     Копирование... OK
Трек  3
     Имя файла C:\Documents and Settings\ЮРА\Мои документы\Моя музыка\геннадий гладков\Монолог доктора.wav
     Пиковый уровень 98.7 %
     Качество трека 99.5 %
     CRC копии 1EF292D5
     Копирование... OK
Трек  4
     Имя файла C:\Documents and Settings\ЮРА\Мои документы\Моя музыка\геннадий гладков\Поездка Алёши к графу.wav
     Пиковый уровень 97.4 %
     Качество трека 99.6 %
     CRC копии 3C73E667
     Копирование... OK
Трек  5
     Имя файла C:\Documents and Settings\ЮРА\Мои документы\Моя музыка\геннадий гладков\Диалог слуг графа.wav
     Пиковый уровень 100.0 %
     Качество трека 100.0 %
     CRC копии 14D547B0
     Копирование... OK
Трек  6
     Имя файла C:\Documents and Settings\ЮРА\Мои документы\Моя музыка\геннадий гладков\Уно моменто с речетативом.wav
     Пиковый уровень 94.7 %
     Качество трека 99.8 %
     CRC копии B9859A19
     Копирование... OK
Трек  7
     Имя файла C:\Documents and Settings\ЮРА\Мои документы\Моя музыка\геннадий гладков\Приезд графа к Алексею.wav
     Пиковый уровень 87.4 %
     Качество трека 100.0 %
     CRC копии 7D8CC36A
     Копирование... OK
Трек  8
     Имя файла C:\Documents and Settings\ЮРА\Мои документы\Моя музыка\геннадий гладков\Встеча и обед графа.wav
     Пиковый уровень 99.5 %
     Качество трека 100.0 %
     CRC копии 88BE3090
     Копирование... OK
Трек  9
     Имя файла C:\Documents and Settings\ЮРА\Мои документы\Моя музыка\геннадий гладков\Неаполитанская песня.wav
     Пиковый уровень 77.6 %
     Качество трека 100.0 %
     CRC копии B45DDDE0
     Копирование... OK
Трек 10
     Имя файла C:\Documents and Settings\ЮРА\Мои документы\Моя музыка\геннадий гладков\Диалог с селянкой.wav
     Пиковый уровень 100.0 %
     Качество трека 99.5 %
     CRC копии 49EE2DFD
     Копирование... OK
Трек 11
     Имя файла C:\Documents and Settings\ЮРА\Мои документы\Моя музыка\геннадий гладков\Превращение статуи.wav
     Пиковый уровень 60.0 %
     Качество трека 100.0 %
     CRC копии 806C70C2
     Копирование... OK
Трек 12
     Имя файла C:\Documents and Settings\ЮРА\Мои документы\Моя музыка\геннадий гладков\Размышления графа.wav
     Пиковый уровень 100.0 %
     Качество трека 100.0 %
     CRC копии 0D0560EB
     Копирование... OK
Трек 13
     Имя файла C:\Documents and Settings\ЮРА\Мои документы\Моя музыка\геннадий гладков\Финал.wav
     Пиковый уровень 100.0 %
     Качество трека 100.0 %
     CRC копии 4E7B2A71
     Копирование... OK
Трек 14
     Имя файла C:\Documents and Settings\ЮРА\Мои документы\Моя музыка\геннадий гладков\Лей, ливень.wav
     Пиковый уровень 100.0 %
     Качество трека 99.8 %
     CRC копии 9687DAC3
     Копирование... OK
Трек 15
     Имя файла C:\Documents and Settings\ЮРА\Мои документы\Моя музыка\геннадий гладков\Шесвие с огнями.wav
     Пиковый уровень 98.0 %
     Качество трека 100.0 %
     CRC копии E3966EF0
     Копирование... OK
Трек 16
     Имя файла C:\Documents and Settings\ЮРА\Мои документы\Моя музыка\геннадий гладков\Песня Эстер.wav
     Пиковый уровень 64.6 %
     Качество трека 99.9 %
     CRC копии D0283352
     Копирование... OK
Трек 17
     Имя файла C:\Documents and Settings\ЮРА\Мои документы\Моя музыка\геннадий гладков\Рождение Гулливера.wav
     Пиковый уровень 96.4 %
     Качество трека 99.9 %
     CRC копии 457A49DD
     Копирование... OK
Трек 18
     Имя файла C:\Documents and Settings\ЮРА\Мои документы\Моя музыка\геннадий гладков\Финал.wav
     Пиковый уровень 100.0 %
     Качество трека 100.0 %
     CRC копии F7DF8CE6
     Копирование... OK
Трек 19
     Имя файла C:\Documents and Settings\ЮРА\Мои документы\Моя музыка\геннадий гладков\Песня волшебника.wav
     Пиковый уровень 100.0 %
     Качество трека 100.0 %
     CRC копии 3A8667BF
     Копирование... OK
Трек 20
     Имя файла C:\Documents and Settings\ЮРА\Мои документы\Моя музыка\геннадий гладков\Прощальная песня.wav
     Пиковый уровень 100.0 %
     Качество трека 100.0 %
     CRC копии 642E383D
     Копирование... OK
Ошибок не произошло
Конец отчёта
 
Не забывайте говорить Спасибо. Не уходите с раздачи!   
Торрент: Зарегистрирован [23 май 2017, 12:10] Для скачивания .torrent
необходима регистрация
Или скачать с помощью
MediaGet
Статус:
Проверен
 
.torrent скачан: 0 раз
Хэш: 76f0f53e4d17424c34d58193d9c210c295a00c4e
Размер: 294.9 МБ (309 230 250 байт)
Стать Автором раздачи
 
 
Раздал: 0 байт
Скачал: 0 байт
Ратио: Inf.
Сообщения: 487468
Зарегистрирован: 17 апр 2014, 13:57


  • Похожие торренты
    Ответы
    Просмотры
    Последнее сообщение

Вернуться в Саундтреки к отечественным фильмам (lossless)

Ресурс не предоставляет электронные версии произведений, а занимается лишь коллекционированием и каталогизацией ссылок, присылаемых и публикуемых на форуме нашими читателями. Если вы являетесь правообладателем какого-либо представленного материала и не желаете чтобы ссылка на него находилась в нашем каталоге, свяжитесь с нами и мы незамедлительно удалим её. Файлы для обмена на трекере предоставлены пользователями сайта, и администрация не несёт ответственности за их содержание. Просьба не заливать файлы, защищенные авторскими правами, а также файлы нелегального содержания!
cron