Буба [01-20 + 3 бонуса] (2014-2017) WEB-DLRip 720p от ExKinoRay

 
 Статистика раздачи 
Размер: 813.69 МБ   |  Зарегистрирован: 19 май 2017, 20:37   |   .torrent скачан: 30 раз
Сидеров: 46  [ 0 байт/сек ]     Личеров: 20  [ 0 байт/сек ]  
  

Буба [01-20 + 3 бонуса] (2014-2017) WEB-DLRip 720p от ExKinoRay

Сообщение graf_t » 19 май 2017, 20:37

Информация о фильме
Название: Буба (booba)
Год выхода: 2014-2017
Страна: Россия, 3D Sparrow
Жанр: Мультсериал, детский, приключения, комедия
Продолжительность: 20 х ~ 00:03:35, 3 х ~ 00:01:00
Язык: русский

Режиссеры: Сергей Горобец, Леонид Рахманин, Алексей Котеночкин, Евгений Шиняев и Михаил Ткаченко, Анна Соловьева, Сергей Павлутин

Роли озвучивали: Роман Карев

О фильме: Буба (Booba) — смешной и любопытный домовой. Он игрив и любознателен как ребёнок, отчего регулярно попадает в переделки. Остаётся тайной, как этот герой пропустил век эволюции общества, отчего он только сейчас познаёт плоды технического прогресса. Неуклюжий Буба превратит порядок в хаос, но это будет весело!

01. Кухня
02. Ванная комната
03. Детская комната
04. Кабинет
05. Игровая комната
06. Кабинет биологии
07. Свеча
08. Гараж
09. Чердак
10. Бабочка
11. Мышеловка
12. Картина
13. Кондитерская
14. Цирк
15. Праздник
16. Кинотеатр
17. Лампочка
18. Бургер
19. Метро
20. Супермаркет

Бонус:
001. Кондитерская (мини-серия)
002. Буба и розетка
003. С новым 2017 годом!



Доп. информация:
Семпл



Файл
Формат: MP4
Качество: WEB-DLRip 720p
Видео: MPEG4-AVC, Main@L3.1, 1280x720 (16:9), ~ 1 750 Kbps, 25.000 fps
Звук: 44.1 KHz, AAC-LC 2.0, 192 Kbps

03. Детская комната. HD-merci-.mp4
Формат : MPEG-4
Профиль формата : Base Media
Идентификатор кодека : isom (isom/mp42)
Размер файла : 43,1 Мбайт
Продолжительность : 3 м. 5 с.
Режим общего битрейта : Переменный
Общий поток : 1947 Кбит/сек
Дата кодирования : UTC 2016-10-21 13:19:21
Дата пометки : UTC 2016-10-21 13:19:21
Программа кодирования : My MP4Box GUI 0.6.0.6

Видео
Идентификатор : 1
Формат : AVC
Формат/Информация : Advanced Video Codec
Профиль формата : Main@L3.1
Параметр CABAC формата : Да
Параметр ReFrames формата : 3 кадра
Идентификатор кодека : avc1
Идентификатор кодека/Информация : Advanced Video Coding
Продолжительность : 3 м. 5 с.
Продолжительность оригинала : 3 м. 5 с.
Битрейт : 1750 Кбит/сек
Ширина : 1280 пикселей
Высота : 720 пикселей
Соотношение сторон : 16:9
Режим частоты кадров : Переменный
Частота кадров : 24,488 кадра/сек
Минимальная частота кадров : 8,333 кадров/сек
Максимальная частота кадров : 25,000 кадров/сек
Цветовое пространство : YUV
Субдискретизация насыщенности : 4:2:0
Битовая глубина : 8 бит
Тип развёртки : Прогрессивная
Бит/(Пиксели*Кадры) : 0.078
Размер потока : 38,7 Мбайт (90%)
Размер потока оригинала : 38,7 Мбайт (90%)
Язык : English
Дата кодирования : UTC 2016-10-21 13:19:21
Дата пометки : UTC 2016-10-21 13:19:21
Цветовой диапазон : Limited
Основные цвета : BT.709
Характеристики трансфера : BT.709
Коэффициенты матрицы : BT.709
mdhd_Duration : 185483

Аудио
Идентификатор : 2
Формат : AAC
Формат/Информация : Advanced Audio Codec
Профиль формата : LC
Идентификатор кодека : 40
Продолжительность : 3 м. 5 с.
Вид битрейта : Переменный
Битрейт : 192 Кбит/сек
Каналы : 2 канала
Расположение каналов : Front: L R
Частота : 48,0 КГц
Частота кадров : 46,875 кадров/сек (1024 spf)
Метод сжатия : С потерями
Размер потока : 4,25 Мбайт (10%)
Язык : English
Дата кодирования : UTC 2016-10-21 13:19:21
Дата пометки : UTC 2016-10-21 13:19:21
mdhd_Duration : 185581



Добавил эпизоды:
+ 14 - 29.11.2016
+ 15 - 03.01.2017
+ 16 - 21.01.2017
+ 17 - 22.02.2017
+ 18 - 20.03.2017
+ 19 - 15.05.2017
+ 20 - 20.05.2017

Добавил бонус:
+ 003 - 21.01.2017


Релиз от:
Автор релиза: /
 
Не забывайте говорить Спасибо. Не уходите с раздачи!   
Торрент: Зарегистрирован [19 май 2017, 20:37] Для скачивания .torrent
необходима регистрация
Или скачать с помощью
MediaGet
Статус:
Проверен
 
.torrent скачан: 30 раз
Хэш: cf3bc5c01defb06b4041c6b93a6fab103b6d1292
Размер: 813.69 МБ (853 217 116 байт)
Стать Автором раздачи
 
 
Раздал: 100 ГБ
Скачал: 0 байт
Ратио: Seed.
Сообщения: 28493
Зарегистрирован: 31 мар 2015, 18:04


  • Похожие торренты
    Ответы
    Просмотры
    Последнее сообщение

Вернуться в Мультфильмы и мультсериалы

Кто сейчас на конференции

Сейчас эту тему просматривают: нет зарегистрированных пользователей и гости: 1

Ресурс не предоставляет электронные версии произведений, а занимается лишь коллекционированием и каталогизацией ссылок, присылаемых и публикуемых на форуме нашими читателями. Если вы являетесь правообладателем какого-либо представленного материала и не желаете чтобы ссылка на него находилась в нашем каталоге, свяжитесь с нами и мы незамедлительно удалим её. Файлы для обмена на трекере предоставлены пользователями сайта, и администрация не несёт ответственности за их содержание. Просьба не заливать файлы, защищенные авторскими правами, а также файлы нелегального содержания!