Что будешь делать во время апокалипсиса? Будешь ли занят? Сможешь ли спасти меня? / Shuumatsu Nani Shitemasuka? Isogashii Desuka? Sukutte Moratte Ii Desuka? / SukaSuka [TV] [6 из 12] [Без хардсаба] [JAP+SUB] [2017, фэнтези, драма, HDTVRip] [720p]

 
 Статистика раздачи 
Размер: 2.14 ГБ   |  Зарегистрирован: 19 май 2017, 16:16   |   .torrent скачан: 0 раз
Сидеров: 1  [ 0 байт/сек ]     Личеров: 0  [ 0 байт/сек ]  
  

Что будешь делать во время апокалипсиса? Будешь ли занят? Сможешь ли спасти меня? / Shuumatsu Nani Shitemasuka? Isogashii Desuka? Sukutte Moratte Ii Desuka? / SukaSuka [TV] [6 из 12] [Без хардсаба] [JAP+SUB] [2017, фэнтези, драма, HDTVRip] [720p]

Сообщение Nakazhu » 19 май 2017, 16:16

Что ты будешь делать во время апокалипсиса? Будешь ли ты занят? Сможешь ли ты спасти меня? /Shuumatsu Nani Shitemasuka? Isogashii Desuka? Sukutte Moratte Ii Desuka?
Страна: Япония
Год выпуска: 2017 г.
Тип: TV
Жанр: Драма, романтика, сэйнэн, экшн, фэнтези,
Продолжительность: 12 эп. по 25 мин
Русские субтитры: sovetromantica
Русские субтитры: SoraSubs
переводчик: Aexks
корректор: Kagamin
редактор: Luaine
Режиссер: Вада Дзюнъити
Студия:
Описание: Как гласят легенды, в прошлом на земле обитала раса известная как человечество. Как и многие другие, она вела войны с иными видами, такими как орки или демоны. 500 лет назад человечество победило все другие расы мира - слабейший победил сильнейших и возвысился настолько, что сверг и Бога. Знаменем же человечества в той войне были герои, способные владеть технологией священных клинков. Так продолжалось до тех пор, пока почти всё живое на земле не было уничтожено таинственными "Зверями". Никто не знал, кем они были и откуда появились, но надежда на будущее исчезла почти так же мгновенно, как и все страны мира. Из-за этого выжившим ничего не оставалось, кроме как перебраться на парящие в небе острова. Многие расы считали, что виноваты в этой катастрофе именно люди, хотя достоверных сведений не сохранилось. Среди выживших рас, на человечество больше всего похожи "не отмеченные", немногочисленные расы не обладающие рогами, чешуей или иными звериными атрибутами. Из-за этого их сходства с людьми, другие расы сторонятся их, хотя и не испытывают к ним ненависти.
Однако угроза нападений "Зверей" не исчезла, и последним оплотом всех рас являются лепреконки. Наследие святых клинков перешло к совсем юным лепреконкам, чья жизнь - всего лишь расходный материал в борьбе за благополучие парящих городов. Они воспринимаются собой и окружающими не как живые существа, но как оружие. И однажды в их мимолётной жизни в качестве опекуна появляется тот, кто лишился всего те самые пятьсот лет назад. Человек по имени Уильям - единственный, кто пережил истребление человечества, к тому же он был одним из тех, кто мог использовать волшебные клинки. В последней битве он превратился в камень, чтобы через пятьсот лет ожить вновь. Теперь Уильям живет среди других рас, с которыми люди когда-то враждовали. Ему поручают присматривать за детьми лепреконов. Бывший герой, не способный перенять их тяжкое бремя, становится их тренером, а также и опекуном, переживающим за них. Он собирается сделать всё возможное, чтобы эти девочки выжили и научились ценить собственную жизнь.
Качество: HDTVRip | Равка: Leopard-Raws Формат: mp4 | Тип Видео: без хардсаба
Видео: х264, 8 bits, 1280x720, 1778 kbps, 23.976 fps, (16:9)
JP - AAC, 192 kbps, 48.0 KHz, 2 ch Язык Японский
01. The Nidaime`s Homecoming
02. Late Autumn Night`s Dream
03. Starry Road to Tomorrow
04. Dice in Pot
05. From Dawn Till Dusk
06. No News Was Good News
Общее
Полное имя : C:\[Leopard-Raws] Shuumatsu Nani Shitemasuka? Isogashii Desuka? Sukutte Moratte Ii Desuka\[Leopard-Raws] Shuumatsu Nani Shitemasuka? Isogashii Desuka? Sukutte Moratte Ii Desuka? - 01 RAW (ATX 1280x720 x264 AAC).mp4
Формат : MPEG-4
Профиль формата : Base Media
Идентификатор кодека : isom (isom/avc1/iso6)
Размер файла : 346 Мбайт
Продолжительность : 24 м. 30 с.
Режим общего битрейта : Переменный
Общий поток : 1973 Кбит/сек
Дата кодирования : UTC 2017-04-12 04:14:03
Дата пометки : UTC 2017-04-12 04:14:03
Видео
Идентификатор : 1
Формат : AVC
Формат/Информация : Advanced Video Codec
Профиль формата : High@L4.1
Параметр CABAC формата : Да
Параметр ReFrames формата : 4 кадра
Идентификатор кодека : avc1
Идентификатор кодека/Информация : Advanced Video Coding
Продолжительность : 24 м. 29 с.
Битрейт : 1778 Кбит/сек
Максимальный битрейт : 8599 Кбит/сек
Ширина : 1280 пикселей
Высота : 720 пикселей
Соотношение сторон : 16:9
Режим частоты кадров : Постоянный
Частота кадров : 23,976 (24000/1001) кадра/сек
Цветовое пространство : YUV
Субдискретизация насыщенности : 4:2:0
Битовая глубина : 8 бит
Тип развёртки : Прогрессивная
Бит/(Пиксели*Кадры) : 0.080
Размер потока : 312 Мбайт (90%)
Заголовок : 264:fps=23.976@GPAC0.5.2-DEV-rev376-g5eeb74d-master
Библиотека кодирования : x264 core 129 r2245+729M 1a52e03
Настройки программы : cabac=1 / ref=4 / deblock=1:1:-1 / analyse=0x3:0x113 / me=umh / subme=9 / psy=1 / fade_compensate=0.00 / psy_rd=1.00:0.00 / mixed_ref=1 / me_range=24 / chroma_me=1 / trellis=2 / 8x8dct=1 / cqm=0 / deadzone=21,11 / fast_pskip=1 / chroma_qp_offset=-2 / threads=8 / lookahead_threads=1 / sliced_threads=0 / nr=0 / decimate=1 / interlaced=0 / bluray_compat=0 / constrained_intra=0 / fgo=0 / bframes=9 / b_pyramid=2 / b_adapt=2 / b_bias=0 / direct=1 / weightb=1 / open_gop=0 / weightp=2 / keyint=240 / keyint_min=24 / scenecut=40 / intra_refresh=0 / rc=crf / mbtree=0 / crf=18.5 / qcomp=0.72 / qpmin=0 / qpmax=69 / qpstep=4 / ip_ratio=1.40 / pb_ratio=1.30 / aq=1:0.85
Дата кодирования : UTC 2017-04-12 04:14:03
Дата пометки : UTC 2017-04-12 04:14:06
Цветовой диапазон : Limited
Основные цвета : BT.709
Характеристики трансфера : BT.709
Коэффициенты матрицы : BT.709
Аудио
Идентификатор : 2
Формат : AAC
Формат/Информация : Advanced Audio Codec
Профиль формата : LC
Идентификатор кодека : 40
Продолжительность : 24 м. 30 с.
Вид битрейта : Переменный
Битрейт : 192 Кбит/сек
Максимальный битрейт : 226 Кбит/сек
Каналы : 2 канала
Расположение каналов : Front: L R
Частота : 48,0 КГц
Частота кадров : 46,875 кадров/сек (1024 spf)
Метод сжатия : С потерями
Размер потока : 33,5 Мбайт (10%)
Язык : Japanese
Дата кодирования : UTC 2017-04-11 18:51:05
Дата пометки : UTC 2017-04-12 04:14:06

Обновите торент файл, добавлена 6я серия
 
Не забывайте говорить Спасибо. Не уходите с раздачи!   
Торрент: Зарегистрирован [19 май 2017, 16:16] Для скачивания .torrent
необходима регистрация
Или скачать с помощью
MediaGet
Статус:
Проверен
 
.torrent скачан: 0 раз
Хэш: 9f910d60038682be85ee6008febecad5bd342b8c
Размер: 2.14 ГБ (2 294 825 085 байт)
Стать Автором раздачи
 
 
Раздал: 0 байт
Скачал: 0 байт
Ратио: Inf.
Сообщения: 362364
Зарегистрирован: 17 апр 2014, 13:57


  • Похожие торренты
    Ответы
    Просмотры
    Последнее сообщение

Вернуться в Аниме (HD и Blu-ray)

Ресурс не предоставляет электронные версии произведений, а занимается лишь коллекционированием и каталогизацией ссылок, присылаемых и публикуемых на форуме нашими читателями. Если вы являетесь правообладателем какого-либо представленного материала и не желаете чтобы ссылка на него находилась в нашем каталоге, свяжитесь с нами и мы незамедлительно удалим её. Файлы для обмена на трекере предоставлены пользователями сайта, и администрация не несёт ответственности за их содержание. Просьба не заливать файлы, защищенные авторскими правами, а также файлы нелегального содержания!
cron