Код доступа. (3 выпуска) [Звезда (эфир 18.05.2017)] (Игорь Холодков) [2017, Информационно-документальный, SATRip]

 
 Статистика раздачи 
Размер: 1.6 ГБ   |  Зарегистрирован: 19 май 2017, 14:46   |   .torrent скачан: 0 раз
Сидеров: 1  [ 0 байт/сек ]     Личеров: 0  [ 0 байт/сек ]  
  

Код доступа. (3 выпуска) [Звезда (эфир 18.05.2017)] (Игорь Холодков) [2017, Информационно-документальный, SATRip]

Сообщение Nakazhu » 19 май 2017, 14:46

Код: Выделить всё
[b][color=darkblue]КОД ДОСТУПА [/color][/b]
[b][i][color=#996600]Премьера на канале ЗВЕЗДА! [/color][/b][/i]

[b]Год выпуска[/b]: 2017
[b]Страна[/b]: Россия
[b]Жанр[/b]: Информационно-документальный
[b]Продолжительность[/b]: по 00:38:00
[b]Bедущий[/b]: Павел Веденяпин
[b]Режиссер[/b]: Игорь Холодков
[b]Перевод[/b]: Не требуется
[b]Русские субтитры[/b]: нет
[b]Производство[/b]: ОАО «ТРК ВС РФ «ЗВЕЗДА»
[b]Описание[/b]:[color=darkblue] В цикле программ «Код доступа» раскроются тайны самых противоречивых и скандальных персонажей современности. За ними охотятся спецслужбы, об интервью с ними мечтают журналисты по всему миру, на них пишут компроматы и расставляют «медовые» ловушки… Их имена всегда на первых полосах газет. Они меняют ход истории и являются главными действующими лицами в политике и экономике. О скандальных схемах их преступлений, авантюр и махинаций должны знать все, ведь чем больше мы будем знать подобных фактов, тем больше наша страна будет защищена от внешних и внутренних угроз, мы сможем сохранить достоинство и ценности нашей Родины. [/color]
[b]Релиз группы: [/b]
[b]Релиз группы[/b]: [img]http://static.rutracker.org/ranks/rg_military.gif[/img]
[b]Качество[/b]: SATRip
[b]Формат[/b]: AVI
[b]Видео[/b]: 720x400 (1.80:1), 50 fps, XviD ~1871 kbps, 0.26 bit/pixel
[b]Аудио[/b]: 48 kHz, MPEG Layer 3, 2 ch, ~128 kbps avg
Общее
Полное имя : F:\Torrents\Kod_dostupa_(Zvezda)_[rutracker.org]\001_KD-Dzhulian_Assanzh-04.05.2017_br.avi
Формат : AVI
Формат/Информация : Audio Video Interleave
Размер файла : 547 Мбайт
Продолжительность : 38 м.
Общий поток : 2009 Кбит/сек
Программа кодирования : VirtualDubMod 1.6.0.0 SURROUND (build 2560/release)
Библиотека кодирования : VirtualDubMod build 2560/release
Видео
Идентификатор : 0
Формат : MPEG-4 Visual
Профиль формата : Advanced Simple@L5
Параметр BVOP формата : 2
Параметр QPel формата : Нет
Параметр GMC формата : Без точки перехода
Параметр матрицы формата : Default (H.263)
Идентификатор кодека : XVID
Идентификатор кодека/Подсказка : XviD
Продолжительность : 38 м.
Битрейт : 1871 Кбит/сек
Ширина : 720 пикселей
Высота : 400 пикселей
Соотношение сторон : 16:9
Соотношение сторон в оригинале : 16:9
Частота кадров : 25,000 кадров/сек
Цветовое пространство : YUV
Субдискретизация насыщенности : 4:2:0
Битовая глубина : 8 бит
Тип развёртки : Прогрессивная
Метод сжатия : С потерями
Бит/(Пиксели*Кадры) : 0.260
Размер потока : 510 Мбайт (93%)
Библиотека кодирования : XviD 64
Аудио
Идентификатор : 1
Формат : MPEG Audio
Версия формата : Version 1
Профиль формата : Layer 3
Режим : Joint stereo
Расширение режима : MS Stereo
Идентификатор кодека : 55
Идентификатор кодека/Подсказка : MP3
Продолжительность : 38 м.
Вид битрейта : Постоянный
Битрейт : 128 Кбит/сек
Каналы : 2 канала
Частота : 48,0 КГц
Метод сжатия : С потерями
Размер потока : 34,9 Мбайт (6%)
Выравнивание : Разделение по промежуткам
Продолжительность промежутка : 40 мс. (1,00 видеокадр)
Время предзагрузки промежутка : 500 мс.
Библиотека кодирования : LAME3.99r
Настройки программы : -m j -V 4 -q 3 -lowpass 17 -b 128
Джулиан Ассанж опубликовал миллионы секретных документов, выкраденных у спецслужб, правительств, политиков. Джордж Буш сказал, что Ассанж нанес США вреда больше, чем Аль-Каида и Талибан вместе взятые. Хиллари Клинтон предлагала уничтожить его ударом с беспилотника. А Барак Обама заявил, что Джулиан – русский агент и работает на Кремль! На кого на самом деле работает легендарный разоблачитель, бросивший вызов американскому мировому господству?
Имя файла: 001_KD-Dzhulian_Assanzh-04.05.2017_br.avi
* В конце файла рассинхрон. У кого он есть лучшего качества, пожалуйста, предложите.
Одни называли его «дьяволом», другие — «опереточным злодеем». Гениальный плут и ключевая фигура эпохи 90-х. Смерть Бориса Березовского стала новостью номер один во всех мировых СМИ. Было ли это самоубийством или его убрали? Что могло послужить поводом к устранению беглого олигарха: королевское порно или материалы антипутинского заговора? Есть и еще одна версия — неожиданная…
Имя файла: 002_KD-Boris_Berezovskij-11.05.2017.avi
Одни называют его «главным разоблачителем ХХI века», другие — человеком-загадкой. Как простой системный администратор ухитрился выкрасть 200 000 секретных документов главной спецслужбы США? Почему кадровые офицеры Агентства национальной безопасности добровольно передали 20-летнему Эдварду Сноудену логины и пароли от своих компьютеров? 400 гигабайт, которые взорвут мир! У кого пароль к этой информации? Какой компромат прячет Сноуден? И почему он выбрал Россию?
Имя файла: 003_KD-Ehdvard_Snouden-18.05.2017.avi
Код: Выделить всё
[b][i][color=blue] Добавил: 03. Код доступа. Эдвард Сноуден (эфир_18.05.2017). Пожалуйста, обновите торрент-файл. [/color][/b][/i]
Внимание! Раздача ведётся путём добавления новых выпусков; при каждом добавлении создаётся новый торрент.
Чтобы начать докачку нового выпуска, пользователям необходимо сделать следующее:
(1) остановить скачивание,
(2) удалить старый торрент у себя из клиента (старые серии удалять не надо),
(3) скачать новый торрент и запустить его у себя в клиенте вместо старого, при этом указать клиенту путь в старую папку куда и должно происходить скачивание новых выпусков.
Ваш клиент при этом должен произвести хеширование (проверку) старой папки (если не производит сам - помогите ему сделать это). В результате он будет докачивать только те выпуски, которых у Вас ещё нет. Старые выпуски при этом не удаляются, а продолжают раздаваться!
Eсли Вы уже удалили старые выпуски, то предотвратить их повторную закачку можно, сняв галочки в соответствующих местах при запуске нового торрента. По возможности, желательно не удалять старые выпуски как можно дольше, чтобы релизёр не только продолжал раздавать старые выпуски, но и смог сконцентрироваться на новых.
Как скачать отдельный файл из торрента можно прочитать здесь:
Код: Выделить всё
[b][color=#993399]На раздаче по возможности, ~20 Mb/s.  > [Что от меня зависит, сделал. Остальное зависит от Вас, трекера и наших провайдеров.][/color][/b]
 
Не забывайте говорить Спасибо. Не уходите с раздачи!   
Торрент: Зарегистрирован [19 май 2017, 14:46] Для скачивания .torrent
необходима регистрация
Или скачать с помощью
MediaGet
Статус:
Проверен
 
.torrent скачан: 0 раз
Хэш: 67b59b2f1432810d1779f2abf04ff296583e138a
Размер: 1.6 ГБ (1 716 121 600 байт)
Стать Автором раздачи
 
 
Раздал: 0 байт
Скачал: 0 байт
Ратио: Inf.
Сообщения: 257644
Зарегистрирован: 17 апр 2014, 13:57


  • Похожие торренты
    Ответы
    Просмотры
    Последнее сообщение

Вернуться в Тайны века / Спецслужбы / Теории Заговоров

Кто сейчас на конференции

Сейчас эту тему просматривают: нет зарегистрированных пользователей и гости: 1

Ресурс не предоставляет электронные версии произведений, а занимается лишь коллекционированием и каталогизацией ссылок, присылаемых и публикуемых на форуме нашими читателями. Если вы являетесь правообладателем какого-либо представленного материала и не желаете чтобы ссылка на него находилась в нашем каталоге, свяжитесь с нами и мы незамедлительно удалим её. Файлы для обмена на трекере предоставлены пользователями сайта, и администрация не несёт ответственности за их содержание. Просьба не заливать файлы, защищенные авторскими правами, а также файлы нелегального содержания!