Кто боится Вирджинии Вулф? / Who's Afraid of Virginia Woolf? (Джеймс Макдональд / James Macdonald’s) [2017, Великобритания, Театр, HDTV] Harold Pinter Theatre

 
 Статистика раздачи 
Размер: 28.83 ГБ   |  Зарегистрирован: 19 май 2017, 13:42   |   .torrent скачан: 0 раз
Сидеров: 14  [ 0 байт/сек ]     Личеров: 5  [ 0 байт/сек ]  
  

Кто боится Вирджинии Вулф? / Who's Afraid of Virginia Woolf? (Джеймс Макдональд / James Macdonald’s) [2017, Великобритания, Театр, HDTV] Harold Pinter Theatre

Сообщение Nakazhu » 19 май 2017, 13:42

Кто боится Вирджинии Вулф? / Who's Afraid of Virginia Woolf?
Название театра: Harold Pinter Theatre
Страна: Великобритания
Жанр: Театр
Год выпуска: 2017
Продолжительность: 01:11:23 + 01:00:01 + 00:53:36
Перевод: Субтитры
Cубтитры: английские, русские, шведские
Оригинальная аудиодорожка: английский
Режиссёр: Джеймс Макдональд / James Macdonald’s
В ролях:
Imelda Staunton
Conleth Hill
Luke Treadaway
Imogen Poots
Описание: Действие пьесы происходит ночью и ранним утром в американском университетском городке. Невзирая на неудовольствие своего супруга Джорджа, Марта приглашает нового профессора и его жену к себе домой, чтобы пропустить еще по стаканчику после вечеринки в колледже. Количество выпитых напитков растет, приближаются рассветные часы, и молодая пара гостей оказывается втянутой в психологические игры Джорджа и Марты, пока под утро не наступает настоящий момент истины, полный шокирующих откровений.
Доп. информация:
http://www.forumcinemas.ee/rus/Event/301196/
Семпл: http://multi-up.com/1153571
Качество видео: HDTV 1080i
Формат видео: TS
Видео: MPEG4 Video (H264), 1920x1080, 25fps, 20.6 Mbps
Аудио: Dolby AC3, 48000Hz, 6ch, 640kbps
1 часть
Общее
Идентификатор : 1 (0x1)
Полное имя : D:\SatFeed\NTL Whos Afraid of Virginia Woolf\Virginia Woolf NTL 1p.ts
Формат : MPEG-TS
Размер файла : 11,1 Гбайт
Продолжительность : 1 ч. 11 м.
Режим общего битрейта : Постоянный
Общий поток : 22,3 Мбит/сек
Видео
Идентификатор : 308 (0x134)
Идентификатор меню : 1 (0x1)
Формат : AVC
Формат/Информация : Advanced Video Codec
Профиль формата : High@L4.1
Параметр CABAC формата : Да
Параметр ReFrames формата : 4 кадра
Параметр GOP формата : M=3, N=18
Идентификатор кодека : 27
Продолжительность : 1 ч. 11 м.
Битрейт : 20,6 Мбит/сек
Ширина : 1920 пикселей
Высота : 1080 пикселей
Соотношение сторон : 16:9
Частота кадров : 25,000 кадров/сек
Цветовое пространство : YUV
Субдискретизация насыщенности : 4:2:0
Битовая глубина : 8 бит
Тип развёртки : Чересстрочная
Метод сохранения типа развёртки : Раздельные поля
Порядок развёртки : Верхнее поле первое
Бит/(Пиксели*Кадры) : 0.397
Размер потока : 10,3 Гбайт (92%)
Цветовой диапазон : Limited
Основные цвета : BT.709
Характеристики трансфера : BT.709
Коэффициенты матрицы : BT.709
Аудио
Идентификатор : 256 (0x100)
Идентификатор меню : 1 (0x1)
Формат : AC-3
Формат/Информация : Audio Coding 3
Расширение режима : CM (complete main)
Параметр Endianness формата : Big
Идентификатор кодека : 6
Продолжительность : 1 ч. 11 м.
Вид битрейта : Постоянный
Битрейт : 640 Кбит/сек
Каналы : 6 каналов
Расположение каналов : Front: L C R, Side: L R, LFE
Частота : 48,0 КГц
Частота кадров : 31,250 кадров/сек (1536 spf)
Метод сжатия : С потерями
Задержка видео : -453 мс.
Размер потока : 327 Мбайт (3%)
Язык : English
Меню
Идентификатор : 32 (0x20)
Идентификатор меню : 1 (0x1)
Продолжительность : 1 ч. 11 м.
Список : 308 (0x134) (AVC) / 256 (0x100) (AC-3, English)
Язык : / English
Название сервиса : NT LIVE
Поставщик сервиса : Service Provider
Тип сервиса : digital television
Максимальный битрейт : 200000000
2 часть
Общее
Идентификатор : 1 (0x1)
Полное имя : D:\SatFeed\NTL Whos Afraid of Virginia Woolf\Virginia Woolf NTL 2p.ts
Формат : MPEG-TS
Размер файла : 9,35 Гбайт
Продолжительность : 1 ч. 0 м.
Время начала : UTC 2017-05-18 21:26:52
Режим общего битрейта : Постоянный
Общий поток : 22,3 Мбит/сек
Видео
Идентификатор : 308 (0x134)
Идентификатор меню : 1 (0x1)
Формат : AVC
Формат/Информация : Advanced Video Codec
Профиль формата : High@L4.1
Параметр CABAC формата : Да
Параметр ReFrames формата : 4 кадра
Идентификатор кодека : 27
Продолжительность : 59 м.
Битрейт : 20,6 Мбит/сек
Ширина : 1920 пикселей
Высота : 1080 пикселей
Соотношение сторон : 16:9
Частота кадров : 25,000 кадров/сек
Цветовое пространство : YUV
Субдискретизация насыщенности : 4:2:0
Битовая глубина : 8 бит
Тип развёртки : Чересстрочная
Метод сохранения типа развёртки : Раздельные поля
Порядок развёртки : Верхнее поле первое
Бит/(Пиксели*Кадры) : 0.397
Размер потока : 8,62 Гбайт (92%)
Цветовой диапазон : Limited
Основные цвета : BT.709
Характеристики трансфера : BT.709
Коэффициенты матрицы : BT.709
Аудио
Идентификатор : 256 (0x100)
Идентификатор меню : 1 (0x1)
Формат : AC-3
Формат/Информация : Audio Coding 3
Расширение режима : CM (complete main)
Параметр Endianness формата : Big
Идентификатор кодека : 6
Продолжительность : 1 ч. 0 м.
Вид битрейта : Постоянный
Битрейт : 640 Кбит/сек
Каналы : 6 каналов
Расположение каналов : Front: L C R, Side: L R, LFE
Частота : 48,0 КГц
Частота кадров : 31,250 кадров/сек (1536 spf)
Метод сжатия : С потерями
Задержка видео : -472 мс.
Размер потока : 275 Мбайт (3%)
Язык : English
Меню
Идентификатор : 32 (0x20)
Идентификатор меню : 1 (0x1)
Продолжительность : 1 ч. 0 м.
Список : 308 (0x134) (AVC) / 256 (0x100) (AC-3, English)
Язык : / English
Название сервиса : NT LIVE
Поставщик сервиса : Service Provider
Тип сервиса : digital television
Максимальный битрейт : 200000000
3 часть
Общее
Идентификатор : 1 (0x1)
Полное имя : D:\SatFeed\NTL Whos Afraid of Virginia Woolf\Virginia Woolf NTL 3p.ts
Формат : MPEG-TS
Размер файла : 8,35 Гбайт
Продолжительность : 53 м.
Режим общего битрейта : Постоянный
Общий поток : 22,3 Мбит/сек
Видео
Идентификатор : 308 (0x134)
Идентификатор меню : 1 (0x1)
Формат : AVC
Формат/Информация : Advanced Video Codec
Профиль формата : High@L4.1
Параметр CABAC формата : Да
Параметр ReFrames формата : 4 кадра
Параметр GOP формата : M=3, N=18
Идентификатор кодека : 27
Продолжительность : 53 м.
Битрейт : 20,6 Мбит/сек
Ширина : 1920 пикселей
Высота : 1080 пикселей
Соотношение сторон : 16:9
Частота кадров : 25,000 кадров/сек
Цветовое пространство : YUV
Субдискретизация насыщенности : 4:2:0
Битовая глубина : 8 бит
Тип развёртки : Чересстрочная
Метод сохранения типа развёртки : Раздельные поля
Порядок развёртки : Верхнее поле первое
Бит/(Пиксели*Кадры) : 0.397
Размер потока : 7,70 Гбайт (92%)
Цветовой диапазон : Limited
Основные цвета : BT.709
Характеристики трансфера : BT.709
Коэффициенты матрицы : BT.709
Аудио
Идентификатор : 256 (0x100)
Идентификатор меню : 1 (0x1)
Формат : AC-3
Формат/Информация : Audio Coding 3
Расширение режима : CM (complete main)
Параметр Endianness формата : Big
Идентификатор кодека : 6
Продолжительность : 53 м.
Вид битрейта : Постоянный
Битрейт : 640 Кбит/сек
Каналы : 6 каналов
Расположение каналов : Front: L C R, Side: L R, LFE
Частота : 48,0 КГц
Частота кадров : 31,250 кадров/сек (1536 spf)
Метод сжатия : С потерями
Задержка видео : -378 мс.
Размер потока : 245 Мбайт (3%)
Язык : English
Меню
Идентификатор : 32 (0x20)
Идентификатор меню : 1 (0x1)
Продолжительность : 53 м.
Список : 308 (0x134) (AVC) / 256 (0x100) (AC-3, English)
Язык : / English
Название сервиса : NT LIVE
Поставщик сервиса : Service Provider
Тип сервиса : digital television
Максимальный битрейт : 200000000



Субтитры

 
Не забывайте говорить Спасибо. Не уходите с раздачи!   
Торрент: Зарегистрирован [19 май 2017, 13:42] Для скачивания .torrent
необходима регистрация
Или скачать с помощью
MediaGet
Статус:
Проверен
 
.torrent скачан: 0 раз
Хэш: b60c49d650558ec84f90d94cadb048325ea86235
Размер: 28.83 ГБ (30 956 618 244 байт)
Стать Автором раздачи
 
 
Раздал: 0 байт
Скачал: 0 байт
Ратио: Inf.
Сообщения: 232891
Зарегистрирован: 17 апр 2014, 13:57


  • Похожие торренты
    Ответы
    Просмотры
    Последнее сообщение

Вернуться в Театр

Кто сейчас на конференции

Сейчас эту тему просматривают: нет зарегистрированных пользователей и гости: 1

Ресурс не предоставляет электронные версии произведений, а занимается лишь коллекционированием и каталогизацией ссылок, присылаемых и публикуемых на форуме нашими читателями. Если вы являетесь правообладателем какого-либо представленного материала и не желаете чтобы ссылка на него находилась в нашем каталоге, свяжитесь с нами и мы незамедлительно удалим её. Файлы для обмена на трекере предоставлены пользователями сайта, и администрация не несёт ответственности за их содержание. Просьба не заливать файлы, защищенные авторскими правами, а также файлы нелегального содержания!