Красавица и чудовище / Beauty and the Beast (1991) BDRip 3D [H.264/1080p] [Вертикальная анаморфная стереопара]

 
 Статистика раздачи 
Размер: 6.85 ГБ   |  Зарегистрирован: 19 май 2017, 11:38   |   .torrent скачан: 0 раз
Сидеров: 1  [ 0 байт/сек ]     Личеров: 0  [ 0 байт/сек ]  
  

Красавица и чудовище / Beauty and the Beast (1991) BDRip 3D [H.264/1080p] [Вертикальная анаморфная стереопара]

Сообщение Nasty » 19 май 2017, 11:38

Красавица и чудовище / Beauty and the Beast (1991) BDRip 3D [H.264/1080p] [Вертикальная анаморфная стереопара]

Производство: Walt Disney Pictures, Silver Screen Partners IV
Жанр: Сказка, Музыкальный, Фентези, Семейный

Режиссер: Гари Труздейл, Кирк Уайз
Персонажи: Робби Бенсон, Джесси Корти, Рекс Эверхарт, Анджела Лэнсбери, Пейдж О’Хара, Джерри Орбак, Брэдли Пирс, Дэвид Огден Стайерз, Ричард Уайт, Джо Энн Уорли

Описание:
Фильм приглашает в зачарованный замок, скрытый в чаще темного волшебного леса. Его хозяин ужасное Чудовище, которого все боятся и ненавидят. Лишь самая прекрасная и смелая девушка в мире по имени Белль способна разгадать тайну страшного, а на самом деле, очень несчастного хозяина замка и разрушить чары, обрекшие его на вечное пребывание в шкуре жуткого зверя. Только тот, кто растопит лед в сердце чудовища и сможет полюбить его таким, какой он есть, сможет вернуть ему человеческий облик, но, чтобы спасти хозяина зачарованного замка, Белль придется выступить против всех: ведь жители ее деревни, подстрекаемые злобным охотником Гастоном, хотят погубить гордое и доброе Чудовище...



Возраст: 6+ (зрителям, достигшим 6 лет)
Рейтинг MPAA: G (нет возрастных ограничений)
Дата мировой премьеры: 29 сентября 1991
Дата выхода DVD/Blu-ray релиза: 1 мая 2012, «Уолт Дисней Компани СНГ»

Релиз от: RG NNM Club Video

Продолжительность: 01:24:55
Качество видео: BDRip
Перевод: Дублированный
Субтитры: русские (форсированные, полные, на песни), украинские (полные), английские (полные)

Видео: AVC/H.264, 1920x1080, ~9500 kbps
Аудио: AC3, 6 ch, 640 kbps - русский
Аудио: AC3, 6 ch, 640 kbps - украинский
Аудио: DTS, 6 ch, 768 kbps - английский
Код: Выделить всё
frame I:1199  Avg QP:13.45  size:262574
frame P:39118 Avg QP:16.29  size: 90994
frame B:81819 Avg QP:19.10  size: 26588

Format                                   : Matroska
Format version                           : Version 4 / Version 2
File size                                : 6.85 GiB
Duration                                 : 1h 24mn
Overall bit rate                         : 11.6 Mbps
Movie name                               : BEAUTY_AND_BEAST_3D.Title3
Encoded date                             : UTC 2017-05-18 10:17:28
Writing application                      : mkvmerge v9.8.0 ('Kuglblids') 64bit
Writing library                          : libebml v1.3.4 + libmatroska v1.4.5

Video
ID                                       : 1
Format                                   : AVC
Format/Info                              : Advanced Video Codec
Format profile                           :
Format settings, CABAC                   : Yes
Format settings, ReFrames                : 4 frames
Codec ID                                 : V_MPEG4/ISO/AVC
Duration                                 : 1h 24mn
Bit rate                                 : 9 500 Kbps
Width                                    : 1 920 pixels
Height                                   : 1 080 pixels
Display aspect ratio                     : 16:9
Frame rate mode                          : Constant
Frame rate                               : 23.976 fps
Color space                              : YUV
Chroma subsampling                       : 4:2:0
Bit depth                                : 8 bits
Scan type                                : Progressive
Bits/(Pixel*Frame)                       : 0.191
Stream size                              : 5.50 GiB (80%)
Title                                    : 3D - Красавица и Чудовище by Amstaff - NNM club
Writing library                          : x264 core 128 r2216M 198a7ea
Encoding settings                        : cabac=1 / ref=4 / deblock=1:-3:-3 / analyse=0x3:0x133 / me=umh / subme=9 / psy=1 / psy_rd=1.00:0.20 / mixed_ref=1 / me_range=24 / chroma_me=1 / trellis=2 / 8x8dct=1 / cqm=0 / deadzone=21,11 / fast_pskip=1 / chroma_qp_offset=-3 / threads=4 / lookahead_threads=1 / sliced_threads=0 / nr=0 / decimate=1 / interlaced=0 / bluray_compat=0 / constrained_intra=0 / bframes=6 / b_pyramid=2 / b_adapt=2 / b_bias=0 / direct=1 / weightb=1 / open_gop=0 / weightp=2 / keyint=230 / keyint_min=23 / scenecut=40 / intra_refresh=0 / rc_lookahead=40 / rc=2pass / mbtree=1 / bitrate=9500 / ratetol=1.0 / qcomp=0.60 / qpmin=10 / qpmax=51 / qpstep=4 / cplxblur=20.0 / qblur=0.5 / ip_ratio=1.40 / aq=1:1.00
Default                                  : Yes
Forced                                   : No

Audio #1
ID                                       : 2
Format                                   : AC-3
Format/Info                              : Audio Coding 3
Mode extension                           : CM (complete main)
Format settings, Endianness              : Big
Codec ID                                 : A_AC3
Duration                                 : 1h 24mn
Bit rate mode                            : Constant
Bit rate                                 : 640 Kbps
Channel(s)                               : 6 channels
Channel positions                        : Front: L C R, Side: L R, LFE
Sampling rate                            : 48.0 KHz
Bit depth                                : 16 bits
Compression mode                         : Lossy
Stream size                              : 389 MiB (6%)
Title                                    : Дубляж
Language                                 : Russian
Default                                  : Yes
Forced                                   : No

Audio #2
ID                                       : 3
Format                                   : AC-3
Format/Info                              : Audio Coding 3
Mode extension                           : CM (complete main)
Format settings, Endianness              : Big
Codec ID                                 : A_AC3
Duration                                 : 1h 24mn
Bit rate mode                            : Constant
Bit rate                                 : 640 Kbps
Channel(s)                               : 6 channels
Channel positions                        : Front: L C R, Side: L R, LFE
Sampling rate                            : 48.0 KHz
Bit depth                                : 16 bits
Compression mode                         : Lossy
Stream size                              : 389 MiB (6%)
Title                                    : Дубляж
Language                                 : Ukrainian
Default                                  : No
Forced                                   : No

Audio #3
ID                                       : 4
Format                                   : DTS
Format/Info                              : Digital Theater Systems
Mode                                     : 16
Format settings, Endianness              : Big
Codec ID                                 : A_DTS
Duration                                 : 1h 24mn
Bit rate mode                            : Constant
Bit rate                                 : 768 Kbps
Channel(s)                               : 6 channels
Channel positions                        : Front: L C R, Side: L R, LFE
Sampling rate                            : 48.0 KHz
Bit depth                                : 16 bits
Compression mode                         : Lossy
Stream size                              : 466 MiB (7%)
Title                                    : original
Language                                 : English
Default                                  : No
Forced                                   : No

Text #1
ID                                       : 5
Format                                   : UTF-8
Codec ID                                 : S_TEXT/UTF8
Codec ID/Info                            : UTF-8 Plain Text
Title                                    : Форсированные
Language                                 : Russian
Default                                  : Yes
Forced                                   : No

Text #2
ID                                       : 6
Format                                   : UTF-8
Codec ID                                 : S_TEXT/UTF8
Codec ID/Info                            : UTF-8 Plain Text
Title                                    : Полные
Language                                 : Russian
Default                                  : No
Forced                                   : No

Text #3
ID                                       : 7
Format                                   : UTF-8
Codec ID                                 : S_TEXT/UTF8
Codec ID/Info                            : UTF-8 Plain Text
Title                                    : Песни
Language                                 : Russian
Default                                  : No
Forced                                   : No

Text #4
ID                                       : 8
Format                                   : UTF-8
Codec ID                                 : S_TEXT/UTF8
Codec ID/Info                            : UTF-8 Plain Text
Title                                    : Полные
Language                                 : Ukrainian
Default                                  : No
Forced                                   : No

Text #5
ID                                       : 9
Format                                   : UTF-8
Codec ID                                 : S_TEXT/UTF8
Codec ID/Info                            : UTF-8 Plain Text
Title                                    : Full
Language                                 : English
Default                                  : No
Forced                                   : No

Скриншоты:




Время раздачи: 24/7 (до появления первых 3-5 скачавших)
 
Не забывайте говорить Спасибо. Не уходите с раздачи!   
Торрент: Зарегистрирован [19 май 2017, 11:38] Для скачивания .torrent
необходима регистрация
Или скачать с помощью
MediaGet
Статус:
Проверен
 
.torrent скачан: 0 раз
Хэш: d3c7560eabb8a007fd569db11a284897be26710b
Размер: 6.85 ГБ (7 356 126 724 байт)
Стать Автором раздачи
 
 
Раздал: 100 ГБ
Скачал: 0 байт
Ратио: Seed.
Сообщения: 20207
Зарегистрирован: 09 апр 2015, 19:56


  • Похожие торренты
    Ответы
    Просмотры
    Последнее сообщение

Вернуться в 3D Мультфильмы

Ресурс не предоставляет электронные версии произведений, а занимается лишь коллекционированием и каталогизацией ссылок, присылаемых и публикуемых на форуме нашими читателями. Если вы являетесь правообладателем какого-либо представленного материала и не желаете чтобы ссылка на него находилась в нашем каталоге, свяжитесь с нами и мы незамедлительно удалим её. Файлы для обмена на трекере предоставлены пользователями сайта, и администрация не несёт ответственности за их содержание. Просьба не заливать файлы, защищенные авторскими правами, а также файлы нелегального содержания!
cron