Великая мечта / A Great Hope / Daemang (Kim Jong Hak) [26/26][Южная Корея, 2002-2003, исторический, романтика, TVRip][Субтитры]

 
 Статистика раздачи 
Размер: 6.46 ГБ   |  Зарегистрирован: 19 май 2017, 03:20   |   .torrent скачан: 0 раз
Сидеров: 1  [ 0 байт/сек ]     Личеров: 0  [ 0 байт/сек ]  
  

Великая мечта / A Great Hope / Daemang (Kim Jong Hak) [26/26][Южная Корея, 2002-2003, исторический, романтика, TVRip][Субтитры]

Сообщение Nakazhu » 19 май 2017, 03:20

Великая мечта / A Great Hope
大望 / 대망 / Dae-mang / Daemang


Оригинальное название: 大望 / 대망 / Dae-mang / Daemang
Английское название: The Great Ambition / A Great Hope
Год выпуска: 2002-2003
Страна: Южная Корея
Жанр: исторический, романтика
Продолжительность: 26 эпизодов по 46 мин
Перевод: Субтитры
Режиссер: Kim Jong Hak
В ролях:
Jang Hyuk as Park Jae Young
Maeng Se Chang as young Park Jae Young
Son Ye Jin as Choi Dong Hee
Lee Yo Won as Yoon Yeo Jin
Han Jae Suk as Park Si Young
Jang Geun Suk as young Park Si Young
Park Sang Won as Park Hwi Chan
Jo Hyun Jae as the Regent Prince
Jo Min Soo as Dan Ae
Kyun Mi Ri as Lady Yoo
Jung Sung Mo as Prince Geum Pyeong
Park Young Kyu as Choi Sun Jae
Yoo Sun as Dan Ja Yun
Jung Suk Yong as Dan Ga Chun
Park Jung Hak as Lee Su
Jo In Sung as young Lee Su (ep1)
Hong Kyung In as Seo Gu
Jang Hang Sun as Byun Haeng Su
Im Hyun Shik as Du Yi
Lee Won Jong as monk
Yang Jin Woo as Jang Pon Yeon
Yoon Ye Ri
Goo Jung Rim
Kim Young
Lee Seung Ki

Описание: Сбежавшая рабыня Пун оставила новорожденного сына Чжэ Ёна на попечение своего хозяина, богатого купца. Она заявила, что мальчик - его родной сын, и попросила семью заботиться о ребёнке. Чжэ Ён вырастает добрый сердцем, в отличие от своего старшего брата - Си Ёна, из-за которого не один раз попадает в переделки. Пак Си Ён живёт лишь ради собственных мечтаний и надежд, и на пути к их достижению он готов пожертвовать всем. Оказавшись в борьбе за власть по разные стороны баррикад, братьям приходится соперничать и в любви. (с)Charmy
Доп. информация: Русские субтитры
от Релиз-группы ClubFate
Перевод, ретайминг: VaiNary
Редакция: Charmy
Спасибо за предоставленный софтсаб James Piterson
от KnittinGirl


Качество видео: TVRip
Формат: MP4
Видео кодек: H.264 PSP AVC
Аудио кодек: AAC
Видео: MPEG4 Video H.264 PSP AVC 368x272 512 kbps
Аудио: AAC 44100Hz stereo 128 Kbps
General
Complete name : U:\WDUltra\N1\[DORAMA]A Great Hope (2002)\[ClubFate]A Great Hope (01).mp4
Format : MPEG-4
Format profile : Base Media
Codec ID : isom
File size : 290 MiB
Duration : 1h 3mn
Overall bit rate mode : Variable
Overall bit rate : 644 Kbps
Encoded date : UTC 2017-04-29 13:15:34
Tagged date : UTC 2017-04-29 13:15:34
Video
ID : 1
Format : AVC
Format/Info : Advanced Video Codec
Format profile : Main@L3.0
Format settings, CABAC : Yes
Format settings, ReFrames : 3 frames
Codec ID : avc1
Codec ID/Info : Advanced Video Coding
Duration : 1h 3mn
Bit rate : 512 Kbps
Maximum bit rate : 3 301 Kbps
Width : 368 pixels
Height : 272 pixels
Display aspect ratio : 4:3
Frame rate mode : Constant
Frame rate : 25.000 fps
Color space : YUV
Chroma subsampling : 4:2:0
Bit depth : 8 bits
Scan type : Progressive
Bits/(Pixel*Frame) : 0.205
Stream size : 231 MiB (80%)
Writing library : x264 core 130 r2273 b3065e6
Encoding settings : cabac=1 / ref=3 / deblock=1:1:1 / analyse=0x1:0x131 / me=umh / subme=10 / psy=1 / psy_rd=1.00:0.00 / mixed_ref=1 / me_range=16 / chroma_me=1 / trellis=2 / 8x8dct=0 / cqm=0 / deadzone=21,11 / fast_pskip=0 / chroma_qp_offset=-2 / threads=3 / lookahead_threads=1 / sliced_threads=0 / nr=0 / decimate=1 / interlaced=0 / bluray_compat=0 / constrained_intra=0 / bframes=3 / b_pyramid=0 / b_adapt=2 / b_bias=0 / direct=3 / weightb=1 / open_gop=0 / weightp=2 / keyint=250 / keyint_min=25 / scenecut=40 / intra_refresh=0 / rc_lookahead=60 / rc=2pass / mbtree=1 / bitrate=512 / ratetol=1.0 / qcomp=0.70 / qpmin=0 / qpmax=69 / qpstep=4 / cplxblur=20.0 / qblur=0.5 / ip_ratio=1.40 / aq=1:0.60
Encoded date : UTC 2017-04-29 13:15:34
Tagged date : UTC 2017-04-29 13:15:38
Audio
ID : 2
Format : AAC
Format/Info : Advanced Audio Codec
Format profile : LC
Codec ID : 40
Duration : 1h 3mn
Bit rate mode : Variable
Bit rate : 128 Kbps
Maximum bit rate : 145 Kbps
Channel(s) : 2 channels
Channel positions : Front: L R
Sampling rate : 44.1 KHz
Compression mode : Lossy
Delay relative to video : 40ms
Stream size : 57.7 MiB (20%)
Encoded date : UTC 2017-04-29 13:15:38
Tagged date : UTC 2017-04-29 13:15:38
Episode 01
Episode 02
Episode 03
Episode 04
Episode 05
Episode 06
Episode 07
Episode 08
Episode 09
Episode 10
Episode 11
Episode 12
Episode 13
Episode 14
Episode 15
Episode 16
Episode 17
Episode 18
Episode 19
Episode 20
Episode 21
Episode 22
Episode 23
Episode 24
Episode 25
Episode 26
 
Не забывайте говорить Спасибо. Не уходите с раздачи!   
Торрент: Зарегистрирован [19 май 2017, 03:20] Для скачивания .torrent
необходима регистрация
Или скачать с помощью
MediaGet
Статус:
Проверен
 
.torrent скачан: 0 раз
Хэш: e99504f7ebbf925c7e283fe40eaa1a979d62618d
Размер: 6.46 ГБ (6 941 170 299 байт)
Стать Автором раздачи
 
 
Раздал: 0 байт
Скачал: 0 байт
Ратио: Inf.
Сообщения: 291280
Зарегистрирован: 17 апр 2014, 13:57


Вернуться в Дорамы для PSP

Ресурс не предоставляет электронные версии произведений, а занимается лишь коллекционированием и каталогизацией ссылок, присылаемых и публикуемых на форуме нашими читателями. Если вы являетесь правообладателем какого-либо представленного материала и не желаете чтобы ссылка на него находилась в нашем каталоге, свяжитесь с нами и мы незамедлительно удалим её. Файлы для обмена на трекере предоставлены пользователями сайта, и администрация не несёт ответственности за их содержание. Просьба не заливать файлы, защищенные авторскими правами, а также файлы нелегального содержания!
cron