Маринка, Янка и тайны королевского замка / Пастух Янка (Юрий Цветков, Вацлава Вербовская) [1976-1977, музыкальный, сказка, DVB-AVC] киноверсия

 
 Статистика раздачи 
Размер: 1.39 ГБ   |  Зарегистрирован: 03 май 2017, 22:20   |   .torrent скачан: 0 раз
Сидеров: 1  [ 0 байт/сек ]     Личеров: 0  [ 0 байт/сек ]  
  

Маринка, Янка и тайны королевского замка / Пастух Янка (Юрий Цветков, Вацлава Вербовская) [1976-1977, музыкальный, сказка, DVB-AVC] киноверсия

Сообщение Lester » 03 май 2017, 22:20

Маринка, Янка и тайны королевского замка / Пастух Янка
Жанр: музыкальный, сказка
Год выпуска: 1976-1977
Продолжительность: 01:18:58
Режиссёр: Юрий Цветков, Вацлава Вербовская
В ролях: Алексей Мокроусов, Светлана Михалькова, Владимир Кулябин, Евгений Лебедев, Наталья Чемодурова, Любовь Румянцева, Георгий Вицин, Алексей Смирнов, Георгий Георгиу, Августин Милованов
Описание: Киноверсия музыкального фильма по мотивам белорусских народных сказок.
По дороге к королю Дуримонту принц Кукимор заезжает к пану Вовк-Лютовецкому, видит прекрасный гобелен и покупает его вместе с ткачихой Маринкой - невестой пастуха Янки. В деревне готовятся к свадьбе Маринки и Янки, но появляются панские слуги и забирают Маринку. Жених бросается вдогонку. Встретив в лесу деда, он дает ему поесть, доводит до дома и рассказывает о своей беде. Дед решает помочь Янке и дает ему волшебную дудочку, но предупреждает, что она не должна попасть в руки злого человека…
Доп. информация: запись с IPTV в Беларуси. Присутствует один анонс (см. последний скриншот), в начале указано возрастное ограничение.
Производство: Беларусьфильм
Сценарий: Артур Вольский, Э. Довнар
Операторы: Марк Брауде, Юрий Елхов
Художник: Игорь Топилин
Композитор: Эдуард Ханок
Семпл: http://sendfile.su/1331582
Качество видео: DVB
Формат видео: MKV
Видео: AVC (H264), 720x576@785x576 (4:3), анаморф, 25 fps, 2208 kbps
Аудио: MP2, 256 kbps, 2 channels, 48 kHz
Код: Выделить всё
General
Unique ID                                : 196137462600224572836962754367138607173 (0x938EB384B68A51823FD608D12B50B045)
Complete name                            : C:\Hamlet.dvbts\Маринка, Янка и тайны королевского замка.mkv
Format                                   : Matroska
Format version                           : Version 2
File size                                : 1.39 GiB
Duration                                 : 1 h 18 min
Overall bit rate                         : 2 514 kb/s
Writing application                      : Lavf54.63.104
Writing library                          : Lavf54.63.104
Video
ID                                       : 1
Format                                   : AVC
Format/Info                              : Advanced Video Codec
Format profile                           : Main@L3
Format settings, CABAC                   : Yes
Format settings, ReFrames                : 4 frames
Codec ID                                 : V_MPEG4/ISO/AVC
Duration                                 : 1 h 18 min
Bit rate                                 : 2 208 kb/s
Width                                    : 720 pixels
Height                                   : 576 pixels
Display aspect ratio                     : 4:3
Original display aspect ratio            : 4:3
Frame rate mode                          : Constant
Frame rate                               : 25.000 FPS
Standard                                 : PAL
Color space                              : YUV
Chroma subsampling                       : 4:2:0
Bit depth                                : 8 bits
Scan type                                : MBAFF
Scan type, store method                  : Separated fields
Scan order                               : Top Field First
Bits/(Pixel*Frame)                       : 0.213
Stream size                              : 1.22 GiB (88%)
Default                                  : No
Forced                                   : No
Color range                              : Limited
Color primaries                          : BT.601 PAL
Transfer characteristics                 : BT.470 System B, BT.470 System G
Matrix coefficients                      : BT.601
Audio
ID                                       : 2
Format                                   : MPEG Audio
Format version                           : Version 1
Format profile                           : Layer 2
Codec ID                                 : A_MPEG/L2
Codec ID/Hint                            : MP2
Duration                                 : 1 h 18 min
Bit rate mode                            : Constant
Bit rate                                 : 256 kb/s
Channel(s)                               : 2 channels
Sampling rate                            : 48.0 kHz
Compression mode                         : Lossy
Stream size                              : 145 MiB (10%)
Language                                 : English
Default                                  : Yes
Forced                                   : No
http://screenshotcomparison.com/comparison/208656
Кроме того, сравниваемая раздача короче почти на минуту из-за сбоев трансляции. Местами выпадения фрагментов до 25 секунд (см. сравнительные семплы ниже):
http://sendfile.su/1331590 - данная раздача
http://sendfile.su/1331591 - сравниваемая раздача
 
Не забывайте говорить Спасибо. Не уходите с раздачи!   
Торрент: Зарегистрирован [03 май 2017, 22:20] Скачать торрент
Скачать торрент
[ Размер 14.38 КБ / Просмотров 12 ]
Статус:
Проверен
 
.torrent скачан: 0 раз
Хэш: ec1537a9aa479812713f8a90e78a10047dc6a742
Размер: 1.39 ГБ (1 488 995 308 байт)
Стать Автором раздачи
 
 
Раздал: 100 ГБ
Скачал: 0 байт
Ратио: Seed.
Сообщения: 122812
Зарегистрирован: 09 апр 2015, 23:00


  • Похожие торренты
    Ответы
    Просмотры
    Последнее сообщение

Вернуться в Кино СССР, Советской России, Российской республики (1917-1991)

Ресурс не предоставляет электронные версии произведений, а занимается лишь коллекционированием и каталогизацией ссылок, присылаемых и публикуемых на форуме нашими читателями. Если вы являетесь правообладателем какого-либо представленного материала и не желаете чтобы ссылка на него находилась в нашем каталоге, свяжитесь с нами и мы незамедлительно удалим её. Файлы для обмена на трекере предоставлены пользователями сайта, и администрация не несёт ответственности за их содержание. Просьба не заливать файлы, защищенные авторскими правами, а также файлы нелегального содержания!
cron