Золото / Gold (2016) BDRip 1080p от ExKinoRay | L, A

Самое свежее и новое. Побалуй себя новинками этого года!
 
 Статистика раздачи 
Размер: 16.17 ГБ   |  Зарегистрирован: 21 апр 2017, 14:47   |   .torrent скачан: 3607 раз
Сидеров: 384  [ 0 байт/сек ]     Личеров: 59  [ 0 байт/сек ]  
  

Золото / Gold (2016) BDRip 1080p от ExKinoRay | L, A

Сообщение graf_t » 21 апр 2017, 14:47

Информация о фильме
Название: Золото
Оригинальное название: Gold
Год выхода: 2016
Жанр: Триллер, драма, приключения
Режиссер: Стивен Гейган
В ролях: Мэттью МакКонахи, Эдгар Рамирес, Брайс Даллас Ховард, Кори Столл, Тоби Кеббелл, Билл Кэмп, Джошуа Харто, Тимоти С. Саймонс, Крэйг Т. Нельсон, Мэйкон Блэр

О фильме:
В начале 80-х годов прошлого столетия полулегальный бизнес Кенни Уэллса по скупке и перепродаже золота приносил его владельцу огромные доходы. Однако внезапная смерть отца, а затем разразившийся в Соединенных Штатах финансовый кризис поставил некогда процветающую компанию на грань банкротства. И тогда Уэллс закладывает в ломбарде последний золотой браслет жены и покупает билет на самолет в Индонезию – там, в дебрях непроходимых джунглей, его старый партнер по бизнесу якобы наткнулся на золотое месторождение. Кажется, судьба все же улыбнулась Уэллсу - но он даже не подозревает, что ждет его впереди


Страна: США
Студия: Black Bear Pictures, Hwy61, Living Films
Продолжительность: 02:00:20
Перевод(ы):
#1: Любительский многоголосый | Paradox&Omskbird Records |
#2: Авторский | Михаил Чадов

Файл
Качество: BDRip 1080p
Видео: MPEG-4 AVC, 1920x800, 15.2 Mbit/s, 23.976 fps
Звук:
Аудио #01: 48 kHz, DTS, 5.1, 1510 Kbps | Paradox&Omskbird Records | RUS |
Аудио #02: 48 kHz, AC3, 5.1, 640 Kbps | Paradox&Omskbird Records | RUS |
Аудио #03: 48 kHz, AC3, 2.0, 384 Kbps | Авторский | RUS |
Аудио #04: 48 kHz, DTS, 5.1, 1510 Kbps | Оригинал | ENG |
Субтитры: Английские



General
Unique ID : 242502593609913207640764110221203314691 (0xB6704CF83789F11D9380D90D76719803)
Complete name : F:VideoGold.2016.BDRip.1080p.ExKinoRay.mkv
Format : Matroska
Format version : Version 4 / Version 2
File size : 16.2 GiB
Duration : 2 h 0 min
Overall bit rate : 19.2 Mb/s
Encoded date : UTC 2017-04-21 09:12:24
Writing application : mkvmerge v10.0.0 ('To Drown In You') 64bit
Writing library : libebml v1.3.4 + libmatroska v1.4.5

Video
ID : 1
Format : AVC
Format/Info : Advanced Video Codec
Format profile : High@L4.1
Format settings, CABAC : Yes
Format settings, ReFrames : 5 frames
Codec ID : V_MPEG4/ISO/AVC
Duration : 2 h 0 min
Bit rate : 15.2 Mb/s
Width : 1 920 pixels
Height : 800 pixels
Display aspect ratio : 2.40:1
Frame rate mode : Constant
Frame rate : 23.976 (24000/1001) FPS
Color space : YUV
Chroma subsampling : 4:2:0
Bit depth : 8 bits
Scan type : Progressive
Bits/(Pixel*Frame) : 0.413
Stream size : 12.8 GiB (79%)
Writing library : x264 core 148 r2744kMod b97ae06
Encoding settings : cabac=1 / ref=5 / deblock=1:-3:-3 / analyse=0x3:0x133 / me=umh / subme=11 / psy=1 / fade_compensate=0.00 / psy_rd=1.10:0.00 / mixed_ref=1 / me_range=64 / chroma_me=1 / trellis=2 / 8x8dct=1 / cqm=0 / deadzone=21,11 / fast_pskip=0 / chroma_qp_offset=-2 / threads=24 / lookahead_threads=4 / sliced_threads=0 / nr=0 / decimate=0 / interlaced=0 / bluray_compat=0 / constrained_intra=0 / bframes=8 / b_pyramid=2 / b_adapt=2 / b_bias=0 / direct=3 / weightb=1 / open_gop=0 / weightp=2 / keyint=240 / keyint_min=2 / scenecut=40 / intra_refresh=0 / rc=2pass / mbtree=0 / bitrate=15200 / ratetol=1.0 / qcomp=0.70 / qpmin=0 / qpmax=69 / qpstep=4 / cplxblur=20.0 / qblur=0.5 / ip_ratio=1.25 / pb_ratio=1.20 / aq=3:0.80
Language : English
Default : No
Forced : No

Audio #1
ID : 2
Format : DTS
Format/Info : Digital Theater Systems
Mode : 16
Format settings, Endianness : Big
Codec ID : A_DTS
Duration : 2 h 0 min
Bit rate mode : Constant
Bit rate : 1 510 kb/s
Channel(s) : 6 channels
Channel positions : Front: L C R, Side: L R, LFE
Sampling rate : 48.0 kHz
Frame rate : 93.750 FPS (512 spf)
Bit depth : 24 bits
Compression mode : Lossy
Stream size : 1.27 GiB (8%)
Title : MVO
Language : Russian
Default : Yes
Forced : No

Audio #2
ID : 3
Format : AC-3
Format/Info : Audio Coding 3
Format settings, Endianness : Big
Codec ID : A_AC3
Duration : 2 h 0 min
Bit rate mode : Constant
Bit rate : 640 kb/s
Channel(s) : 6 channels
Channel positions : Front: L C R, Side: L R, LFE
Sampling rate : 48.0 kHz
Frame rate : 31.250 FPS (1536 spf)
Bit depth : 16 bits
Compression mode : Lossy
Stream size : 551 MiB (3%)
Title : MVO
Language : Russian
Service kind : Complete Main
Default : No
Forced : No

Audio #3
ID : 4
Format : AC-3
Format/Info : Audio Coding 3
Format settings, Endianness : Big
Codec ID : A_AC3
Duration : 2 h 0 min
Bit rate mode : Constant
Bit rate : 384 kb/s
Channel(s) : 2 channels
Channel positions : Front: L R
Sampling rate : 48.0 kHz
Frame rate : 31.250 FPS (1536 spf)
Bit depth : 16 bits
Compression mode : Lossy
Stream size : 330 MiB (2%)
Title : AVO
Language : Russian
Service kind : Complete Main
Default : No
Forced : No

Audio #4
ID : 5
Format : DTS
Format/Info : Digital Theater Systems
Mode : 16
Format settings, Endianness : Big
Codec ID : A_DTS
Duration : 2 h 0 min
Bit rate mode : Constant
Bit rate : 1 509 kb/s
Channel(s) : 6 channels
Channel positions : Front: L C R, Side: L R, LFE
Sampling rate : 48.0 kHz
Frame rate : 93.750 FPS (512 spf)
Bit depth : 24 bits
Compression mode : Lossy
Stream size : 1.27 GiB (8%)
Title : Original
Language : English
Default : No
Forced : No

Text
ID : 6
Format : UTF-8
Codec ID : S_TEXT/UTF8
Codec ID/Info : UTF-8 Plain Text
Duration : 1 h 52 min
Bit rate : 64 b/s
Count of elements : 1714
Stream size : 53.1 KiB (0%)
Title : Full
Language : English
Default : No
Forced : No

Menu
00:00:00.000 : en:00:00:00.000
00:05:22.656 : en:00:05:22.656
00:12:13.358 : en:00:12:13.358
00:18:37.700 : en:00:18:37.700
00:25:58.932 : en:00:25:58.932
00:31:31.515 : en:00:31:31.515
00:37:36.129 : en:00:37:36.129
00:44:01.180 : en:00:44:01.180
00:50:37.201 : en:00:50:37.201
00:57:16.016 : en:00:57:16.016
01:04:13.725 : en:01:04:13.725
01:10:21.175 : en:01:10:21.175
01:16:30.419 : en:01:16:30.419
01:23:53.362 : en:01:23:53.362
01:30:24.419 : en:01:30:24.419
01:36:08.429 : en:01:36:08.429
01:39:51.986 : en:01:39:51.986
01:48:49.690 : en:01:48:49.690
01:52:55.102 : en:01:52:55.102


Релиз от: Автор релиза: Подпишись на меня:
 
Не забывайте говорить Спасибо. Не уходите с раздачи!   
Торрент: Зарегистрирован [21 апр 2017, 14:47] Для скачивания .torrent
необходима регистрация
Или скачать с помощью
MediaGet
Статус:
Проверен
 
.torrent скачан: 3607 раз
Хэш: cb1888b91a17dacfcba90107339f72f6fa906378
Размер: 16.17 ГБ (17 362 880 538 байт)
Стать Автором раздачи
 
 
Раздал: 100 ГБ
Скачал: 0 байт
Ратио: Seed.
Сообщения: 37466
Зарегистрирован: 31 мар 2015, 18:04


  • Похожие торренты
    Ответы
    Просмотры
    Последнее сообщение

Вернуться в Зарубежные фильмы 2016-2017 года

Ресурс не предоставляет электронные версии произведений, а занимается лишь коллекционированием и каталогизацией ссылок, присылаемых и публикуемых на форуме нашими читателями. Если вы являетесь правообладателем какого-либо представленного материала и не желаете чтобы ссылка на него находилась в нашем каталоге, свяжитесь с нами и мы незамедлительно удалим её. Файлы для обмена на трекере предоставлены пользователями сайта, и администрация не несёт ответственности за их содержание. Просьба не заливать файлы, защищенные авторскими правами, а также файлы нелегального содержания!
cron