Отважный и красавица / Cesur ve Güzel / Серии: 1-23 (??) (Али Бильгин / Ali Bilgin) [2016, Турция, Мелодрама, драма, WEBRip (720p)] rus sub ("MILA")

 
 Статистика раздачи 
Размер: 41.35 ГБ   |  Зарегистрирован: 21 апр 2017, 14:46   |   .torrent скачан: 0 раз
Сидеров: 34  [ 0 байт/сек ]     Личеров: 11  [ 0 байт/сек ]  
  

Отважный и красавица / Cesur ve Güzel / Серии: 1-23 (??) (Али Бильгин / Ali Bilgin) [2016, Турция, Мелодрама, драма, WEBRip (720p)] rus sub ("MILA")

Сообщение Lester » 21 апр 2017, 14:46

Отважный и красавица / Cesur ve Güzel

Год выпуска: 2016
Страна: Турция
Производство: AY YAPIM
Жанр: Мелодрама, драма
Серии (количество): 1-23 (??)
Продолжительность: ~ 02:17:00 / каждая серия
Перевод: отсутствует
Субтитры: Русские (hardsub)

Режиссёр: Али Бильгин / Ali Bilgin

В ролях: КЫВАНЧ ТАТЛЫТУГ, ТУБА БЮЙЮКЮСТЮН, Йигит ОЗШЕНЕР, Тамер ЛЕВЕНТ, Эркан АВДЖИ, Серкан АЛТУНОРАК, Сезин АКБАШОГУЛЛАРЫ, Нихан БЮЙЮКАГАЧ, Окдай КОРУНАН, Фырат АЛТУНМЕШЕ, Ырмак ОРНЕК, Гёзде ТЮРКПЕНЧЕ, Муфит КАЙАДЖАН, Ышыл ДАЙЫОГЛУ, Зейнеп КЫЗЫЛТАН, Джансу ТЮРЕДИ, Деврим ЙАКУТ

Описание: Очаровательный красавец Джесур из большого города переезжает в маленький поселок. В том поселке он знакомится с Сюхан, красавицей дочкой богатых землевладельцев. Наша пара безумно и страстно влюбляется друг в друга. Но, оказывается есть много чего, о чем они оба не знают. Семьи Джесура и Сюхан знакомы давным-давно, и между ними враждебные отношения, о чем молодые люди и не догадываются... Незакрытые счета, которые тянутся из прошлого, словно тень нависнет над влюбленными. В дела молодых людей вмешиваются главы семейств, делая их любовь невозможной. Сюхан хорошо воспитанная, создавшая свою собственную марку, сильная женщина. На своих землях выращивает цветы, создает из них духи под маркой SHN, и даже дизайн флаконов в своей мастерской изготавливает. До того, как Джесур вошел в ее жизнь, она была уверена, что выйдет замуж за Бюлента и будет жить счастливо. Но с того момента, как Джесур приезжает в Корлудаг всё переворачивается верх дном. В поселке все ненавидят Тахсина Корлудага, у которого одна единственная мечта – пустить корни, иметь внука. Эта ситуация заставляет нервничать брата Сюхан - Корхана. Его жена - Джахиде, амбициозная и корыстная женщина. Она готова на все, чтобы заполучить состояние Тахсина Корлудага... Готова даже убить Сюхан... Когда Джесур видит, что свалившееся на голову Сюхан не было несчастным случаем, он понимает, что у Тахсина Корлудага есть еще один враг... На дне рождении Тахсина Корлудага, который традиционно широко отмечается, изменится жизнь многих людей... Со временем откроется тайна прибытия Джесура в поселок...

Доп. информация: Перевод на русский язык -группа VK ZETA / Tani&Zarema, Moon Lu, Farida Nur-Melek по заказу Продюсерской компании "MILA" (Руководитель - Marina Kolodina). Корректор и релиз сериала - shachter58.

Сэмпл: http://multi-up.com/1071645

Ссылка на предыдущие и альтернативные раздачи:

Качество: WEBRip (720р)
Формат: MP4
Видео кодек: H.264
Аудио кодек: AAC
Видео: AVC, 1280x720 (16:9), 25.000 fps, 1600 Kbps
Аудио: 44.1 KHz, AAC, 2 channels, 192 Kbps
General
Complete name: H:\RAZDACHI_SERIALOV\Dzhesur.and.Krasaviza.2016.rus.sub.by.MILA.WEBRio_720p\Dzhesur.and.Krasaviza.01seriya.rus.sub.MILA.2016.WEBRip.mp4
Format : MPEG-4
Format profile : Base Media
Codec ID : isom (isom/iso2/avc1/mp41)
File size : 1.73 GiB
Duration : 2h 17mn
Overall bit rate : 1 797 Kbps
Encoded date : UTC 2016-11-10 21:03:20
Tagged date : UTC 2016-11-10 21:03:20
Writing application : Lavf56.36.100

Video
ID : 2
Format : AVC
Format/Info : Advanced Video Codec
Format profile : [email protected]
Format settings, CABAC : Yes
Format settings, ReFrames : 1 frame
Format settings, GOP : M=1, N=25
Codec ID : avc1
Codec ID/Info : Advanced Video Coding
Duration : 2h 17mn
Bit rate : 1 600 Kbps
Width : 1 280 pixels
Height : 720 pixels
Display aspect ratio : 16:9
Frame rate mode : Constant
Frame rate : 25.000 fps
Standard : Component
Color space : YUV
Chroma subsampling : 4:2:0
Bit depth : 8 bits
Scan type : Progressive
Bits/(Pixel*Frame) : 0.069
Stream size : 1.54 GiB (89%)
Encoded date : UTC 2016-11-10 21:03:20
Tagged date : UTC 2016-11-10 21:03:20
Color range : Limited

Audio
ID : 1
Format : AAC
Format/Info : Advanced Audio Codec
Format profile : LC
Codec ID : 40
Duration : 2h 17mn
Duration_LastFrame : -10ms
Bit rate mode : Constant
Bit rate : 192 Kbps
Channel(s) : 2 channels
Channel positions : Front: L R
Sampling rate : 44.1 KHz
Frame rate : 43.066 fps (1024 spf)
Compression mode : Lossy
Stream size : 189 MiB (11%)
Default : Yes
Alternate group : 1
Encoded date : UTC 2016-11-10 21:03:20
Tagged date : UTC 2016-11-10 21:03:20





 
Не забывайте говорить Спасибо. Не уходите с раздачи!   
Торрент: Зарегистрирован [21 апр 2017, 14:46] Для скачивания .torrent
необходима регистрация
Или скачать с помощью
MediaGet
Статус:
Проверен
 
.torrent скачан: 0 раз
Хэш: 8b895cb00a7190d8c1a2064b89551c9eb0894651
Размер: 41.35 ГБ (44 394 019 404 байт)
Стать Автором раздачи
 
 
Раздал: 100 ГБ
Скачал: 0 байт
Ратио: Seed.
Сообщения: 90516
Зарегистрирован: 09 апр 2015, 23:00


  • Похожие торренты
    Ответы
    Просмотры
    Последнее сообщение

Вернуться в Турецкие сериалы

Кто сейчас на конференции

Сейчас эту тему просматривают: нет зарегистрированных пользователей и гости: 1

Ресурс не предоставляет электронные версии произведений, а занимается лишь коллекционированием и каталогизацией ссылок, присылаемых и публикуемых на форуме нашими читателями. Если вы являетесь правообладателем какого-либо представленного материала и не желаете чтобы ссылка на него находилась в нашем каталоге, свяжитесь с нами и мы незамедлительно удалим её. Файлы для обмена на трекере предоставлены пользователями сайта, и администрация не несёт ответственности за их содержание. Просьба не заливать файлы, защищенные авторскими правами, а также файлы нелегального содержания!