Розенкранц и Гильденстерн мертвы / Rosencrantz & Guildenstern are Dead (Том Стоппард) [2017, Великобритания, Театр, HDTV 1080i] Old Vic

 
 Статистика раздачи 
Размер: 23.44 ГБ   |  Зарегистрирован: 21 апр 2017, 13:59   |   .torrent скачан: 2 раз
Сидеров: 11  [ 0 байт/сек ]     Личеров: 4  [ 0 байт/сек ]  
  

Розенкранц и Гильденстерн мертвы / Rosencrantz & Guildenstern are Dead (Том Стоппард) [2017, Великобритания, Театр, HDTV 1080i] Old Vic

Сообщение Lester » 21 апр 2017, 13:59

Розенкранц и Гильденстерн мертвы / Rosencrantz & Guildenstern are Dead

Название театра: Old Vic
Страна: Великобритания
Жанр: Театр
Год выпуска: 2017
Продолжительность: 01:42:32 + 00:47:50
Перевод: Субтитры
Cубтитры: английские, шведские, русские
Оригинальная аудиодорожка: английский

Режиссёр: Том Стоппард

В ролях:
Розенкранц – Дэниэл Рэдклифф
Гильденстерн – Джошуа МакГуайр
Гамлет – Люк Маллинс
Горацио – Тео Огандип
Офелия – Хелена Уилсон

Описание: На фоне событий «Гамлета» два незадачливых второстепенных персонажа, Розенкранц и Гильденстерн, оказываются в центре внимания. Молодой комедийный дуэт то присоединяется к действию всемирно известной пьесы Шекспира, то покидает его, и все больше теряет почву под ногами, когда разворачивается их версия истории. (http://www.forumcinemas.ee/rus/Event/301183/)

Семпл: http://multi-up.com/1150988

Качество видео: HDTV 1080i
Формат видео: TS

Видео: MPEG4 Video (H264), 1920x1080, 25fps, 20.6 Mbps
Аудио: Dolby AC3, 48000Hz, 6ch, 640kbps
1 часть

Общее
Идентификатор : 1 (0x1)
Полное имя : D:\SatFeed\Rosencrantz_Guildenstern\Rosencrantz_Guildenstern_are_Dead_1p.ts
Формат : MPEG-TS
Размер файла : 16,0 Гбайт
Продолжительность : 1 ч. 42 м.
Время начала : UTC 2017-04-20 17:51:15
Режим общего битрейта : Постоянный
Общий поток : 22,3 Мбит/сек

Видео
Идентификатор : 308 (0x134)
Идентификатор меню : 1 (0x1)
Формат : AVC
Формат/Информация : Advanced Video Codec
Профиль формата : High@L4.1
Параметр CABAC формата : Да
Параметр ReFrames формата : 4 кадра
Параметр GOP формата : M=4, N=12
Идентификатор кодека : 27
Продолжительность : 1 ч. 42 м.
Битрейт : 20,6 Мбит/сек
Ширина : 1920 пикселей
Высота : 1080 пикселей
Соотношение сторон : 16:9
Частота кадров : 25,000 кадров/сек
Цветовое пространство : YUV
Субдискретизация насыщенности : 4:2:0
Битовая глубина : 8 бит
Тип развёртки : Чересстрочная
Метод сохранения типа развёртки : Раздельные поля
Порядок развёртки : Верхнее поле первое
Бит/(Пиксели*Кадры) : 0.397
Размер потока : 14,7 Гбайт (92%)
Цветовой диапазон : Limited
Основные цвета : BT.709
Характеристики трансфера : BT.709
Коэффициенты матрицы : BT.709

Аудио
Идентификатор : 256 (0x100)
Идентификатор меню : 1 (0x1)
Формат : AC-3
Формат/Информация : Audio Coding 3
Расширение режима : CM (complete main)
Параметр Endianness формата : Big
Идентификатор кодека : 6
Продолжительность : 1 ч. 42 м.
Вид битрейта : Постоянный
Битрейт : 640 Кбит/сек
Каналы : 6 каналов
Расположение каналов : Front: L C R, Side: L R, LFE
Частота : 48,0 КГц
Частота кадров : 31,250 кадров/сек (1536 spf)
Метод сжатия : С потерями
Задержка видео : -254 мс.
Размер потока : 469 Мбайт (3%)
Язык : English

Меню
Идентификатор : 32 (0x20)
Идентификатор меню : 1 (0x1)
Продолжительность : 1 ч. 42 м.
Список : 308 (0x134) (AVC) / 256 (0x100) (AC-3, English)
Язык : / English
Название сервиса : National Theatre
Поставщик сервиса : Links Broadcast
Тип сервиса : digital television
Максимальный битрейт : 200000000

2 часть

Общее
Идентификатор : 1 (0x1)
Полное имя : D:\SatFeed\Rosencrantz_Guildenstern\Rosencrantz_Guildenstern_are_Dead_2p.ts
Формат : MPEG-TS
Размер файла : 7,46 Гбайт
Продолжительность : 47 м.
Время начала : UTC 2017-04-20 20:41:24
Время окончания : UTC 2017-04-20 20:41:24
Режим общего битрейта : Постоянный
Общий поток : 22,3 Мбит/сек

Видео
Идентификатор : 308 (0x134)
Идентификатор меню : 1 (0x1)
Формат : AVC
Формат/Информация : Advanced Video Codec
Профиль формата : High@L4.1
Параметр CABAC формата : Да
Параметр ReFrames формата : 4 кадра
Параметр GOP формата : M=4, N=12
Идентификатор кодека : 27
Продолжительность : 47 м.
Битрейт : 20,6 Мбит/сек
Ширина : 1920 пикселей
Высота : 1080 пикселей
Соотношение сторон : 16:9
Частота кадров : 25,000 кадров/сек
Цветовое пространство : YUV
Субдискретизация насыщенности : 4:2:0
Битовая глубина : 8 бит
Тип развёртки : Чересстрочная
Метод сохранения типа развёртки : Раздельные поля
Порядок развёртки : Верхнее поле первое
Бит/(Пиксели*Кадры) : 0.397
Размер потока : 6,87 Гбайт (92%)
Цветовой диапазон : Limited
Основные цвета : BT.709
Характеристики трансфера : BT.709
Коэффициенты матрицы : BT.709

Аудио
Идентификатор : 256 (0x100)
Идентификатор меню : 1 (0x1)
Формат : AC-3
Формат/Информация : Audio Coding 3
Расширение режима : CM (complete main)
Параметр Endianness формата : Big
Идентификатор кодека : 6
Продолжительность : 47 м.
Вид битрейта : Постоянный
Битрейт : 640 Кбит/сек
Каналы : 6 каналов
Расположение каналов : Front: L C R, Side: L R, LFE
Частота : 48,0 КГц
Частота кадров : 31,250 кадров/сек (1536 spf)
Метод сжатия : С потерями
Задержка видео : -86 мс.
Размер потока : 219 Мбайт (3%)
Язык : English

Меню
Идентификатор : 32 (0x20)
Идентификатор меню : 1 (0x1)
Продолжительность : 47 м.
Список : 308 (0x134) (AVC) / 256 (0x100) (AC-3, English)
Язык : / English
Название сервиса : National Theatre
Поставщик сервиса : Links Broadcast
Тип сервиса : digital television
Максимальный битрейт : 200000000






Субтитры



 
Не забывайте говорить Спасибо. Не уходите с раздачи!   
Торрент: Зарегистрирован [21 апр 2017, 13:59] Для скачивания .torrent
необходима регистрация
Или скачать с помощью
MediaGet
Статус:
Проверен
 
.torrent скачан: 2 раз
Хэш: 9b4f05c3d34f1c040bef1f01f2fee12a359b06b8
Размер: 23.44 ГБ (25 163 350 492 байт)
Стать Автором раздачи
 
 
Раздал: 100 ГБ
Скачал: 0 байт
Ратио: Seed.
Сообщения: 103530
Зарегистрирован: 09 апр 2015, 23:00


  • Похожие торренты
    Ответы
    Просмотры
    Последнее сообщение

Вернуться в Театр

Кто сейчас на конференции

Сейчас эту тему просматривают: нет зарегистрированных пользователей и гости: 1

Ресурс не предоставляет электронные версии произведений, а занимается лишь коллекционированием и каталогизацией ссылок, присылаемых и публикуемых на форуме нашими читателями. Если вы являетесь правообладателем какого-либо представленного материала и не желаете чтобы ссылка на него находилась в нашем каталоге, свяжитесь с нами и мы незамедлительно удалим её. Файлы для обмена на трекере предоставлены пользователями сайта, и администрация не несёт ответственности за их содержание. Просьба не заливать файлы, защищенные авторскими правами, а также файлы нелегального содержания!