Легенды советского сыска (119 серий) [2011-2017, Документальный цикл, DVB]

 
 Статистика раздачи 
Размер: 119.88 ГБ   |  Зарегистрирован: 21 апр 2017, 13:58   |   .torrent скачан: 0 раз
Сидеров: 1  [ 0 байт/сек ]     Личеров: 0  [ 0 байт/сек ]  
  

Легенды советского сыска (119 серий) [2011-2017, Документальный цикл, DVB]

Сообщение Lester » 21 апр 2017, 13:58

Легенды советского сыска


Дата/Год выпуска: 2011-2017
Страна: Россия
Жанр: Документальный цикл
Продолжительность: 00:37:53
Перевод: Не требуется
Русские субтитры: нет
Оригинальная аудиодорожка: русский
Релиз: dean10
Телеканал: Звезда

Описание: Цикл документальных фильмов о легендарных советских криминалистах и сыщиках. Имена тех, кто совершил дерзкие преступления, когда-то были на первых полосах ведущих газет. О некоторых из них написаны романы и сняты кинофильмы. Легендарные преступники, которые заставили СССР содрогнуться! Кто же были эти люди? Что сделало их ловкими грабителями, безжалостными убийцами или гениальными аферистами? Как сложились их судьбы? Однако, главная цель сериала — вовсе не подробное перечисление криминальных подвигов знаменитых злоумышленников. Это, прежде всего, рассказ о легендарных советских криминалистах и сыщиках.

21.04.2017 _ добавил: Банда бармалея (2017)
перезаливаем
Артист
Багровый апрель
Банда бармалея (2017)
Банда мажоров
Бандитские жёны
Башмак
Берегись автомобиля
Бешеные деньги
Бирка под номером
Бомба в подарок
Бомба для Брежнева
Брежнев против маньяка
Бригада
Бриллиант в законе
Бриллиантовая вдова
Власть страха
Волчья пасть
Восставший из ада
Высшая мера
Гангстеры из Куйбышева
Девичья тайна
Девочка, хочешь сниматься в кино
Девушка в красном
Дело доцента
Дело Каплана
Дело коротышки
Дело об изуверах
Дело о кинжале
Дело о таинственной волге
Дело полковника
Дело хитрого
Дело цеховоков
Деньги для победы
Дитя порока
Дракон о трёх головах (2017)
Дурная кровь
Душегуб
Дьявольская головоломка
Железное алиби
Живой труп
Заокеанская мечта
Змея подколодная
Золотая лихорадка
Золотой
Золото Магадана
Золото певицы
Иркутский зверь
Как украсть миллион
Каннибал
Катафалк
Коварство и любовь
Ковбой из Ногинска
Кодовая фраза
Короткое замыкание
Кража века
Красная метка (2017)
Криминальный барон
Криминальный талант
Кровавая миссия командора
Кровавые деньги
Крысы
Латунная пуля (2017)
Летающие ножи
Лихие семидесятые
Мешок орехов
Мёртвый сезон
Мясной король
Несущие смерть
Нехорошая квартира
Оборотень
Ограбление века
Опасная невеста
Операция А
Операция Зверь
Операция Степь
Операция "Чёрная метка"
Отравители
Охота на призрака
Охотник за Пугачёвой
Охотники за иконами
Охотники за сейфами
Повязаны кровью
Погоня
По кличке Горбатый
Последний маньяк СССР
Почти ритуалное убийство
Предвестник чикатило (2017)
Преступная страсть
Призрак на колёсах
Расстрел на Зарайской
Ребёнок-убийца (2017)
Саранча
Свой среди чужих
Скрипач и сокровища
След на крови
Смертный грех
Смерть адмирала
Смерть приходит весной
Стальные пальцы
Стая
Сыворотка правды (2017)
Тебя найдут мёртвой
Тяга к убийству
Убийца вне подозрений
Убийца вне подозрений (НЕ ПОВТОР)
Убийца по-неволе
Убийца с добрыми глазами
Убить композитора
Ученик Чикатило
Хищник
Человек с тростью (2017)
Червонец
Честь мундира
Чёрная кошка из Казани
Чёрная кошка. Подлинная история
Чёрные дьяволы
Чёрный прокурор
Чудовище
Шальное золото
Сэмпл: http://multi-up.com/1096103

качество: DVB
формат: MPEG-PS
Видео: MPEG 2, 704x576, (4:3), 25 fps, 3 662 kbps
Аудио: Pусский, MP2, 48 kHz, 2 ch, 256 kbps
Код: Выделить всё
General
Complete name                            : X: Легенды советского сыска\Артист.mpg
Format                                   : MPEG-PS
File size                                : 1.06 GiB
Duration                                 : 37mn 57s
Overall bit rate mode                    : Variable
Overall bit rate                         : 3 998 Kbps

Video
ID                                       : 224 (0xE0)
Format                                   : MPEG Video
Format version                           : Version 2
Format profile                           : Main@Main
Format settings, BVOP                    : Yes
Format settings, Matrix                  : Custom
Format settings, GOP                     : M=3, N=15
Duration                                 : 37mn 57s
Bit rate mode                            : Variable
Bit rate                                 : 3 662 Kbps
Maximum bit rate                         : 9 800 Kbps
Width                                    : 704 pixels
Height                                   : 576 pixels
Display aspect ratio                     : 4:3
Frame rate                               : 25.000 fps
Standard                                 : PAL
Color space                              : YUV
Chroma subsampling                       : 4:2:0
Bit depth                                : 8 bits
Scan type                                : Progressive
Scan order                               : Bottom Field First
Compression mode                         : Lossy
Bits/(Pixel*Frame)                       : 0.361
Time code of first frame                 : 00:00:00:00
Time code source                         : Group of pictures header
GOP, Open/Closed                         : Open
GOP, Open/Closed of first frame          : Closed
Stream size                              : 995 MiB (92%)

Audio
ID                                       : 192 (0xC0)
Format                                   : MPEG Audio
Format version                           : Version 1
Format profile                           : Layer 2
Duration                                 : 37mn 57s
Bit rate mode                            : Constant
Bit rate                                 : 256 Kbps
Channel(s)                               : 2 channels
Sampling rate                            : 48.0 KHz
Compression mode                         : Lossy
Stream size                              : 69.5 MiB (6%)
 
Не забывайте говорить Спасибо. Не уходите с раздачи!   
Торрент: Зарегистрирован [21 апр 2017, 13:58] Для скачивания .torrent
необходима регистрация
Или скачать с помощью
MediaGet
Статус:
Проверен
 
.torrent скачан: 0 раз
Хэш: e4ce439368671efda0d150edbc43a99669de0fd7
Размер: 119.88 ГБ (128 715 796 480 байт)
Стать Автором раздачи
 
 
Раздал: 100 ГБ
Скачал: 0 байт
Ратио: Seed.
Сообщения: 105483
Зарегистрирован: 09 апр 2015, 23:00


  • Похожие торренты
    Ответы
    Просмотры
    Последнее сообщение

Вернуться в Криминальная документалистика

Ресурс не предоставляет электронные версии произведений, а занимается лишь коллекционированием и каталогизацией ссылок, присылаемых и публикуемых на форуме нашими читателями. Если вы являетесь правообладателем какого-либо представленного материала и не желаете чтобы ссылка на него находилась в нашем каталоге, свяжитесь с нами и мы незамедлительно удалим её. Файлы для обмена на трекере предоставлены пользователями сайта, и администрация не несёт ответственности за их содержание. Просьба не заливать файлы, защищенные авторскими правами, а также файлы нелегального содержания!
cron