(Flamenco) Estrella Morente - дискография 2001-2014, FLAC (tracks+.cue), lossless

 
 Статистика раздачи 
Размер: 1.61 ГБ   |  Зарегистрирован: 21 апр 2017, 09:49   |   .torrent скачан: 0 раз
Сидеров: 7  [ 0 байт/сек ]     Личеров: 2  [ 0 байт/сек ]  
  

(Flamenco) Estrella Morente - дискография 2001-2014, FLAC (tracks+.cue), lossless

Сообщение Lester » 21 апр 2017, 09:49

Estrella Morente - дискография 2001-2014




Жанр: Flamenco
Носитель: CD
Год издания: 2001-2014
Страна исполнителя (группы): Spain

Studio Albums
Страна-производитель диска: Spain
Год первого выпуска: 2001
Год настоящего издания: 2001
Издатель (лейбл): Virgin Records España, S.A./ Chewaka
Номер по каталогу: 8102052
Format: CD, Album
Аудиокодек: FLAC (*.flac)
Тип рипа: tracks+.cue
Битрейт аудио: lossless
Продолжительность: 00:52:55
Источник (релизер): rodcas2 (permission)
Наличие сканов в содержимом раздачи: да
Треклист:
01. Coquinas (Alegrías) (03:27)
02. En Lo Alto Del Cerro (Tangos) (03:24)
03. Moguer (Bulerías) (03:44)
04. La Noche (Soleá) (03:25)
05. Bulerías De La Bola (06:05)
06. Alcazaba (Media Granaina) (03:47)
07. A Pastora (Sevillanas) (04:05)
08. Peregrinitos (Bulería) (03:24)
09. A Qué Niegas El Delirio (Malagueña) (02:17)
10. Tangos De Pepico (03:28)
11. Soleá Grana (03:45)
12. Galería (Taranta) (02:59)
13. Que Llegue El Domingo (Bulería) (06:34)
14. Las Llamas Llegan Al Cielo (Taranta) (01:57)
Код: Выделить всё
Exact Audio Copy V1.0 beta 3 from 29. August 2011

EAC extraction logfile from 3. May 2013, 17:48

Estrella Morente / Mi Cante y Un Poema

Used drive  : HL-DT-STDVDRAM GSA-H10N   Adapter: 0  ID: 1

Read mode               : Secure
Utilize accurate stream : Yes
Defeat audio cache      : Yes
Make use of C2 pointers : No

Read offset correction                      : 667
Overread into Lead-In and Lead-Out          : No
Fill up missing offset samples with silence : Yes
Delete leading and trailing silent blocks   : No
Null samples used in CRC calculations       : Yes
Used interface                              : Native Win32 interface for Win NT & 2000
Gap handling                                : Appended to previous track

Used output format              : User Defined Encoder
Selected bitrate                : 896 kBit/s
Quality                         : High
Add ID3 tag                     : No
Command line compressor         : C:\Program Files\Exact Audio Copy\Flac\flac.exe
Additional command line options : -8 -V -T "ARTIST=%artist%" -T "TITLE=%title%" -T "ALBUM=%albumtitle%" -T "DATE=%year%" -T "TRACKNUMBER=%tracknr%"  -T "TOTALTRACKS=%numtracks%" -T "GENRE=%genre%" -T "ALBUMARTIST=%albumartist% " -T "ALBUMARTIST=%albumartist%" -T "COMMENT=EAC Secure Mode, Test & Copy,  AccurateRip, FLAC -8" %source%

TOC of the extracted CD

     Track |   Start  |  Length  | Start sector | End sector
    ---------------------------------------------------------
        1  |  0:00.00 |  3:29.59 |         0    |    15733
        2  |  3:29.59 |  3:26.56 |     15734    |    31239
        3  |  6:56.40 |  3:46.56 |     31240    |    48245
        4  | 10:43.21 |  3:27.25 |     48246    |    63795
        5  | 14:10.46 |  6:07.54 |     63796    |    91374
        6  | 20:18.25 |  3:49.12 |     91375    |   108561
        7  | 24:07.37 |  4:07.47 |    108562    |   127133
        8  | 28:15.09 |  3:26.59 |    127134    |   142642
        9  | 31:41.68 |  2:19.12 |    142643    |   153079
       10  | 34:01.05 |  3:30.45 |    153080    |   168874
       11  | 37:31.50 |  3:47.59 |    168875    |   185958
       12  | 41:19.34 |  3:01.47 |    185959    |   199580
       13  | 44:21.06 |  6:36.57 |    199581    |   229337
       14  | 50:57.63 |  1:58.00 |    229338    |   238187

Track  1

     Filename D:\EAC-Ripeos\01 - Coquinas (Alegrias).wav

     Pre-gap length  0:00:02.00

     Peak level 98.8 %
     Extraction speed 3.3 X
     Track quality 99.9 %
     Test CRC A2021DBE
     Copy CRC A2021DBE
     Track not present in AccurateRip database
     Copy OK

Track  2

     Filename D:\EAC-Ripeos\02 - En Lo Alto Del Cerro (Tangos).wav

     Pre-gap length  0:00:02.00

     Peak level 98.8 %
     Extraction speed 4.1 X
     Track quality 100.0 %
     Test CRC 4F784185
     Copy CRC 4F784185
     Track not present in AccurateRip database
     Copy OK

Track  3

     Filename D:\EAC-Ripeos\03 - Moguer (Bulerias).wav

     Pre-gap length  0:00:02.00

     Peak level 98.8 %
     Extraction speed 3.7 X
     Track quality 99.9 %
     Test CRC 34CDB8B2
     Copy CRC 34CDB8B2
     Track not present in AccurateRip database
     Copy OK

Track  4

     Filename D:\EAC-Ripeos\04 - La Noche (Solea).wav

     Pre-gap length  0:00:02.00

     Peak level 98.8 %
     Extraction speed 3.8 X
     Track quality 100.0 %
     Test CRC AC99A001
     Copy CRC AC99A001
     Track not present in AccurateRip database
     Copy OK

Track  5

     Filename D:\EAC-Ripeos\05 - Bulerias De La Bola (Bulerias).wav

     Pre-gap length  0:00:02.00

     Peak level 100.0 %
     Extraction speed 3.6 X
     Track quality 100.0 %
     Test CRC CB8C5F35
     Copy CRC CB8C5F35
     Track not present in AccurateRip database
     Copy OK

Track  6

     Filename D:\EAC-Ripeos\06 - Alcazaba (Media Granaina).wav

     Pre-gap length  0:00:02.00

     Peak level 98.8 %
     Extraction speed 3.7 X
     Track quality 100.0 %
     Test CRC AE233023
     Copy CRC AE233023
     Track not present in AccurateRip database
     Copy OK

Track  7

     Filename D:\EAC-Ripeos\07 - A Pastora (Sevillanas).wav

     Pre-gap length  0:00:02.00

     Peak level 98.8 %
     Extraction speed 3.4 X
     Track quality 99.9 %
     Test CRC 36B68DDE
     Copy CRC 36B68DDE
     Track not present in AccurateRip database
     Copy OK

Track  8

     Filename D:\EAC-Ripeos\08 - Peregrinitos (Bulerias).wav

     Pre-gap length  0:00:02.00

     Peak level 98.8 %
     Extraction speed 5.2 X
     Track quality 99.9 %
     Test CRC 0E4BC5C7
     Copy CRC 0E4BC5C7
     Track not present in AccurateRip database
     Copy OK

Track  9

     Filename D:\EAC-Ripeos\09 - A Que Niegas El Delirio (Malaguenas).wav

     Pre-gap length  0:00:02.00

     Peak level 98.8 %
     Extraction speed 6.3 X
     Track quality 100.0 %
     Test CRC 20E1717C
     Copy CRC 20E1717C
     Track not present in AccurateRip database
     Copy OK

Track 10

     Filename D:\EAC-Ripeos\10 - Tangos De Pepico (Tangos).wav

     Pre-gap length  0:00:02.00

     Peak level 98.8 %
     Extraction speed 6.8 X
     Track quality 100.0 %
     Test CRC 067CD417
     Copy CRC 067CD417
     Track not present in AccurateRip database
     Copy OK

Track 11

     Filename D:\EAC-Ripeos\11 - Solea Grana (Solea).wav

     Pre-gap length  0:00:02.00

     Peak level 98.8 %
     Extraction speed 7.2 X
     Track quality 100.0 %
     Test CRC 40CA88AC
     Copy CRC 40CA88AC
     Track not present in AccurateRip database
     Copy OK

Track 12

     Filename D:\EAC-Ripeos\12 - Galeria (Taranta).wav

     Pre-gap length  0:00:02.00

     Peak level 100.0 %
     Extraction speed 7.0 X
     Track quality 100.0 %
     Test CRC 9DF75D01
     Copy CRC 9DF75D01
     Track not present in AccurateRip database
     Copy OK

Track 13

     Filename D:\EAC-Ripeos\13 - Que Llegue El Domingo (Bulerias).wav

     Pre-gap length  0:00:02.00

     Peak level 98.8 %
     Extraction speed 7.2 X
     Track quality 99.9 %
     Test CRC CE6E2418
     Copy CRC CE6E2418
     Track not present in AccurateRip database
     Copy OK

Track 14

     Filename D:\EAC-Ripeos\14 - Las Llamas Llegan Al Cielo (Taranta).wav

     Pre-gap length  0:00:02.00

     Peak level 95.2 %
     Extraction speed 7.1 X
     Track quality 100.0 %
     Test CRC F266B6ED
     Copy CRC F266B6ED
     Track not present in AccurateRip database
     Copy OK

None of the tracks are present in the AccurateRip database

No errors occurred

End of status report

---- CUETools DB Plugin V2.1.3

[CTDB TOCID: mG0AOLyAYGNcEpyVNXMo57MGvkE-] disk not present in database, Submit result: mG0AOLyAYGNcEpyVNXMo57MGvkE- has been uploaded

==== Log checksum 78F074EEA1977A0E52448A68AAD442279D109A7D369762DBB35E90E9C8F1A70B ====
Код: Выделить всё
REM GENRE Flamenco
REM DATE 2001
REM DISCID B20C670E
REM COMMENT "ExactAudioCopy v1.0b3"
PERFORMER "Estrella Morente"
TITLE "Mi Cante y Un Poema"
FILE "01 - Coquinas (Alegrias).wav" WAVE
  TRACK 01 AUDIO
    TITLE "Coquinas (Alegrias)"
    PERFORMER "Estrella Morente"
    FLAGS DCP
    INDEX 01 00:00:00
  TRACK 02 AUDIO
    TITLE "En Lo Alto Del Cerro (Tangos)"
    PERFORMER "Estrella Morente"
    FLAGS DCP
    INDEX 00 03:27:59
FILE "02 - En Lo Alto Del Cerro (Tangos).wav" WAVE
    INDEX 01 00:00:00
  TRACK 03 AUDIO
    TITLE "Moguer (Bulerias)"
    PERFORMER "Estrella Morente"
    FLAGS DCP
    INDEX 00 03:24:56
FILE "03 - Moguer (Bulerias).wav" WAVE
    INDEX 01 00:00:00
  TRACK 04 AUDIO
    TITLE "La Noche (Solea)"
    PERFORMER "Estrella Morente"
    FLAGS DCP
    INDEX 00 03:44:56
FILE "04 - La Noche (Solea).wav" WAVE
    INDEX 01 00:00:00
  TRACK 05 AUDIO
    TITLE "Bulerias De La Bola (Bulerias)"
    PERFORMER "Estrella Morente"
    FLAGS DCP
    INDEX 00 03:25:25
FILE "05 - Bulerias De La Bola (Bulerias).wav" WAVE
    INDEX 01 00:00:00
  TRACK 06 AUDIO
    TITLE "Alcazaba (Media Granaina)"
    PERFORMER "Estrella Morente"
    FLAGS DCP
    INDEX 00 06:05:54
FILE "06 - Alcazaba (Media Granaina).wav" WAVE
    INDEX 01 00:00:00
  TRACK 07 AUDIO
    TITLE "A Pastora (Sevillanas)"
    PERFORMER "Estrella Morente"
    FLAGS DCP
    INDEX 00 03:47:12
FILE "07 - A Pastora (Sevillanas).wav" WAVE
    INDEX 01 00:00:00
  TRACK 08 AUDIO
    TITLE "Peregrinitos (Bulerias)"
    PERFORMER "Estrella Morente"
    FLAGS DCP
    INDEX 00 04:05:47
FILE "08 - Peregrinitos (Bulerias).wav" WAVE
    INDEX 01 00:00:00
  TRACK 09 AUDIO
    TITLE "A Que Niegas El Delirio (Malaguenas)"
    PERFORMER "Estrella Morente"
    FLAGS DCP
    INDEX 00 03:24:59
FILE "09 - A Que Niegas El Delirio (Malaguenas).wav" WAVE
    INDEX 01 00:00:00
  TRACK 10 AUDIO
    TITLE "Tangos De Pepico (Tangos)"
    PERFORMER "Estrella Morente"
    FLAGS DCP
    INDEX 00 02:17:12
FILE "10 - Tangos De Pepico (Tangos).wav" WAVE
    INDEX 01 00:00:00
  TRACK 11 AUDIO
    TITLE "Solea Grana (Solea)"
    PERFORMER "Estrella Morente"
    FLAGS DCP
    INDEX 00 03:28:45
FILE "11 - Solea Grana (Solea).wav" WAVE
    INDEX 01 00:00:00
  TRACK 12 AUDIO
    TITLE "Galeria (Taranta)"
    PERFORMER "Estrella Morente"
    FLAGS DCP
    INDEX 00 03:45:59
FILE "12 - Galeria (Taranta).wav" WAVE
    INDEX 01 00:00:00
  TRACK 13 AUDIO
    TITLE "Que Llegue El Domingo (Bulerias)"
    PERFORMER "Estrella Morente"
    FLAGS DCP
    INDEX 00 02:59:47
FILE "13 - Que Llegue El Domingo (Bulerias).wav" WAVE
    INDEX 01 00:00:00
  TRACK 14 AUDIO
    TITLE "Las Llamas Llegan Al Cielo (Taranta)"
    PERFORMER "Estrella Morente"
    FLAGS DCP
    INDEX 00 06:34:57
FILE "14 - Las Llamas Llegan Al Cielo (Taranta).wav" WAVE
    INDEX 01 00:00:00
Код: Выделить всё
AUDIOCHECKER v2.0 beta (build 457) - by Dester - opdester@freemail.hu
~~~~~~~~~~~~~~~~~~~~~~~~~~~~~~~~~~
-=== DO NOT EDIT THIS FILE! ===-

Path: ...\2001. Estrella Morente - Mi Cante Y Un Poema {2001, Spain, Virgin 8102052}

01 -=- 01 - Coquinas (Alegrias).flac -=- CDDA (100%)
02 -=- 02 - En Lo Alto Del Cerro (Tangos).flac -=- CDDA (99%)
03 -=- 03 - Moguer (Bulerias).flac -=- CDDA (100%)
04 -=- 04 - La Noche (Solea).flac -=- CDDA (100%)
05 -=- 05 - Bulerias De La Bola (Bulerias).flac -=- CDDA (100%)
06 -=- 06 - Alcazaba (Media Granaina).flac -=- CDDA (100%)
07 -=- 07 - A Pastora (Sevillanas).flac -=- CDDA (100%)
08 -=- 08 - Peregrinitos (Bulerias).flac -=- CDDA (100%)
09 -=- 09 - A Que Niegas El Delirio (Malaguenas).flac -=- CDDA (99%)
10 -=- 10 - Tangos De Pepico (Tangos).flac -=- CDDA (100%)
11 -=- 11 - Solea Grana (Solea).flac -=- CDDA (100%)
12 -=- 12 - Galeria (Taranta).flac -=- CDDA (100%)
13 -=- 13 - Que Llegue El Domingo (Bulerias).flac -=- CDDA (100%)
14 -=- 14 - Las Llamas Llegan Al Cielo (Taranta).flac -=- CDDA (100%)

Summary 99,86% CDDA
Доп. информация: Дебютный альбом.

Estrella Morente: vocal
Seven Guitars:
Josemi Carmona (Ketamas), Pepe Habichuela, Juan Carmona Habichuela, Juan Habichuela , Manolo Sanlucar, José Carbonell Montoyita, Alfredo Lagos.
#77Страна-производитель диска: Spain
Год первого выпуска: 2001
Год настоящего издания: 2010
Издатель (лейбл): Virgin Records España, S.A./ Chewaka
Номер по каталогу: 50999 9 47620 2 0/ 9 47620 2
Format: CD, Album
Аудиокодек: FLAC (*.flac)
Тип рипа: tracks+.cue
Битрейт аудио: lossless
Продолжительность: 00:39:18
Источник (релизер): сторонний ресурс
Наличие сканов в содержимом раздачи: да
Треклист:
01. Nana (01:16)
02. Qué Quieres Que Te Traiga, Que Voy A Burgos (02:59)
03. Caracol (01:44)
04. Los Cuatro Muleros (03:23)
05. Noche De Paz? (03:15)
06. Tangos Del Chavico (03:09)
07. Canción De Los Pastores (04:48)
08. Salve Gitana Del Sacromonte (03:07)
09. Calle Del Aire (03:58)
10. Tabanco (05:12)
11. Bulería Por Soleá (04:14)
12. Regalo De Navidad (02:14)
Код: Выделить всё
Exact Audio Copy V1.0 beta 1 from 15. November 2010

EAC extraction logfile from 27. April 2011, 20:43

Estrella Morente / Calle Del Aire

Used drive  : TSSTcorpCD-RW   TS-H292C   Adapter: 0  ID: 0

Read mode               : Secure
Utilize accurate stream : Yes
Defeat audio cache      : Yes
Make use of C2 pointers : No

Read offset correction                      : 145
Overread into Lead-In and Lead-Out          : No
Fill up missing offset samples with silence : Yes
Delete leading and trailing silent blocks   : No
Null samples used in CRC calculations       : Yes
Used interface                              : Installed external ASPI interface
Gap handling                                : Appended to previous track

Used output format              : User Defined Encoder
Selected bitrate                : 1024 kBit/s
Quality                         : High
Add ID3 tag                     : No
Command line compressor         : C:\Program Files\Exact Audio Copy\FLAC\FLAC.EXE
Additional command line options : -8 -V -T "ARTIST=%a" -T "TITLE=%t" -T "ALBUM=%g" -T "DATE=%y" -T "TRACKNUMBER=%n" -T "TOTALTRACKS=%x" -T "GENRE=%m" -T "ALBUMARTIST=%v" -T "ALBUM ARTIST=%v" -T "COMMENT=EAC Secure Mode, Test & Copy, AccurateRip, FLAC -8" %s

TOC of the extracted CD

     Track |   Start  |  Length  | Start sector | End sector
    ---------------------------------------------------------
        1  |  0:00.00 |  1:15.54 |         0    |     5678
        2  |  1:15.54 |  2:58.60 |      5679    |    19088
        3  |  4:14.39 |  1:44.26 |     19089    |    26914
        4  |  5:58.65 |  3:22.66 |     26915    |    42130
        5  |  9:21.56 |  3:15.08 |     42131    |    56763
        6  | 12:36.64 |  3:09.16 |     56764    |    70954
        7  | 15:46.05 |  4:47.41 |     70955    |    92520
        8  | 20:33.46 |  3:06.52 |     92521    |   106522
        9  | 23:40.23 |  3:58.17 |    106523    |   124389
       10  | 27:38.40 |  5:12.14 |    124390    |   147803
       11  | 32:50.54 |  4:14.31 |    147804    |   166884
       12  | 37:05.10 |  2:13.54 |    166885    |   176913

Track  1

     Filename E:\Almacen\Estrella Morente - Calle del aire (2010) [FLAC]\01 - Nana.wav

     Pre-gap length  0:00:02.00

     Peak level 83.5 %
     Extraction speed 1.9 X
     Track quality 99.8 %
     Test CRC 30844370
     Copy CRC 30844370
     Cannot be verified as accurate (confidence 3)  [BAE42E04], AccurateRip returned [A259A8BC]
     Copy OK

Track  2

     Filename E:\Almacen\Estrella Morente - Calle del aire (2010) [FLAC]\02 - Que quieres que te traiga, que voy a Burgos.wav

     Peak level 97.0 %
     Extraction speed 4.4 X
     Track quality 100.0 %
     Test CRC 5C0F87A5
     Copy CRC 5C0F87A5
     Cannot be verified as accurate (confidence 3)  [96E6DEEB], AccurateRip returned [A532E6CB]
     Copy OK

Track  3

     Filename E:\Almacen\Estrella Morente - Calle del aire (2010) [FLAC]\03 - Caracol.wav

     Peak level 97.0 %
     Extraction speed 4.0 X
     Track quality 100.0 %
     Test CRC 56BC5E02
     Copy CRC 56BC5E02
     Cannot be verified as accurate (confidence 3)  [2B1AC48E], AccurateRip returned [BA8EFAEE]
     Copy OK

Track  4

     Filename E:\Almacen\Estrella Morente - Calle del aire (2010) [FLAC]\04 - Los cuatro muleros.wav

     Peak level 98.6 %
     Extraction speed 4.0 X
     Track quality 99.9 %
     Test CRC 20BFC352
     Copy CRC 20BFC352
     Cannot be verified as accurate (confidence 3)  [312C3B8E], AccurateRip returned [37B26226]
     Copy OK

Track  5

     Filename E:\Almacen\Estrella Morente - Calle del aire (2010) [FLAC]\05 - Noche de Paz.wav

     Peak level 97.0 %
     Extraction speed 5.3 X
     Track quality 100.0 %
     Test CRC AC70E833
     Copy CRC AC70E833
     Cannot be verified as accurate (confidence 3)  [00A91D93], AccurateRip returned [CAAD7893]
     Copy OK

Track  6

     Filename E:\Almacen\Estrella Morente - Calle del aire (2010) [FLAC]\06 - Tangos del Chavico.wav

     Peak level 98.6 %
     Extraction speed 5.4 X
     Track quality 100.0 %
     Test CRC 31E5EBDC
     Copy CRC 31E5EBDC
     Cannot be verified as accurate (confidence 3)  [7F79ACBB], AccurateRip returned [9735A6CB]
     Copy OK

Track  7

     Filename E:\Almacen\Estrella Morente - Calle del aire (2010) [FLAC]\07 - Cancion de los Pastores.wav

     Peak level 97.0 %
     Extraction speed 4.7 X
     Track quality 99.9 %
     Test CRC AFB5CE7D
     Copy CRC AFB5CE7D
     Cannot be verified as accurate (confidence 3)  [41105EE5], AccurateRip returned [F4F8276D]
     Copy OK

Track  8

     Filename E:\Almacen\Estrella Morente - Calle del aire (2010) [FLAC]\08 - Salve Gitana del Sacromonte.wav

     Peak level 97.0 %
     Extraction speed 6.0 X
     Track quality 100.0 %
     Test CRC 6932F58B
     Copy CRC 6932F58B
     Cannot be verified as accurate (confidence 3)  [13AF6428], AccurateRip returned [753A4CD8]
     Copy OK

Track  9

     Filename E:\Almacen\Estrella Morente - Calle del aire (2010) [FLAC]\09 - Calle del aire.wav

     Peak level 97.0 %
     Extraction speed 6.4 X
     Track quality 100.0 %
     Test CRC EB552A36
     Copy CRC EB552A36
     Cannot be verified as accurate (confidence 3)  [D8E7BC57], AccurateRip returned [9D6B4A17]
     Copy OK

Track 10

     Filename E:\Almacen\Estrella Morente - Calle del aire (2010) [FLAC]\10 - Tabanco.wav

     Peak level 98.6 %
     Extraction speed 6.9 X
     Track quality 100.0 %
     Test CRC 0EEA7D9F
     Copy CRC 0EEA7D9F
     Cannot be verified as accurate (confidence 3)  [D9B106C1], AccurateRip returned [739E70F9]
     Copy OK

Track 11

     Filename E:\Almacen\Estrella Morente - Calle del aire (2010) [FLAC]\11 - Buleria por Solea.wav

     Peak level 97.0 %
     Extraction speed 6.5 X
     Track quality 100.0 %
     Test CRC 86797254
     Copy CRC 86797254
     Cannot be verified as accurate (confidence 3)  [EDFC7612], AccurateRip returned [1ED719B2]
     Copy OK

Track 12

     Filename E:\Almacen\Estrella Morente - Calle del aire (2010) [FLAC]\12 - Regalo de Navidad.wav

     Peak level 30.7 %
     Extraction speed 6.2 X
     Track quality 100.0 %
     Test CRC FA528EF7
     Copy CRC FA528EF7
     Cannot be verified as accurate (confidence 3)  [75AB8A98], AccurateRip returned [30B71850]
     Copy OK

No tracks could be verified as accurate
You may have a different pressing from the one(s) in the database

No errors occurred

End of status report

==== Log checksum 2D16E237AAE3675CC8ABEA6A91F5CC869E61EAE55323EABA4080773464F64825 ====
Код: Выделить всё
REM GENRE Folk
REM DATE 2010
REM DISCID 9E09360C
REM COMMENT "ExactAudioCopy v1.0b1"
PERFORMER "Estrella Morente"
TITLE "Calle Del Aire"
FILE "01 - Nana.wav" WAVE
  TRACK 01 AUDIO
    TITLE "Nana"
    PERFORMER "Estrella Morente"
    INDEX 01 00:00:00
FILE "02 - Que quieres que te traiga, que voy a Burgos.wav" WAVE
  TRACK 02 AUDIO
    TITLE "Que quieres que te traiga, que voy a Burgos"
    PERFORMER "Estrella Morente"
    INDEX 01 00:00:00
FILE "03 - Caracol.wav" WAVE
  TRACK 03 AUDIO
    TITLE "Caracol"
    PERFORMER "Estrella Morente"
    INDEX 01 00:00:00
FILE "04 - Los cuatro muleros.wav" WAVE
  TRACK 04 AUDIO
    TITLE "Los cuatro muleros"
    PERFORMER "Estrella Morente"
    INDEX 01 00:00:00
FILE "05 - Noche de Paz.wav" WAVE
  TRACK 05 AUDIO
    TITLE "Noche de Paz?"
    PERFORMER "Estrella Morente"
    INDEX 01 00:00:00
FILE "06 - Tangos del Chavico.wav" WAVE
  TRACK 06 AUDIO
    TITLE "Tangos del Chavico"
    PERFORMER "Estrella Morente"
    INDEX 01 00:00:00
FILE "07 - Cancion de los Pastores.wav" WAVE
  TRACK 07 AUDIO
    TITLE "Cancion de los Pastores"
    PERFORMER "Estrella Morente"
    INDEX 01 00:00:00
FILE "08 - Salve Gitana del Sacromonte.wav" WAVE
  TRACK 08 AUDIO
    TITLE "Salve Gitana del Sacromonte"
    PERFORMER "Estrella Morente"
    INDEX 01 00:00:00
FILE "09 - Calle del aire.wav" WAVE
  TRACK 09 AUDIO
    TITLE "Calle del aire"
    PERFORMER "Estrella Morente"
    INDEX 01 00:00:00
FILE "10 - Tabanco.wav" WAVE
  TRACK 10 AUDIO
    TITLE "Tabanco"
    PERFORMER "Estrella Morente"
    INDEX 01 00:00:00
FILE "11 - Buleria por Solea.wav" WAVE
  TRACK 11 AUDIO
    TITLE "Buleria por Solea"
    PERFORMER "Estrella Morente"
    INDEX 01 00:00:00
FILE "12 - Regalo de Navidad.wav" WAVE
  TRACK 12 AUDIO
    TITLE "Regalo de Navidad"
    PERFORMER "Estrella Morente"
    INDEX 01 00:00:00
Код: Выделить всё
AUDIOCHECKER v2.0 beta (build 457) - by Dester - opdester@freemail.hu
~~~~~~~~~~~~~~~~~~~~~~~~~~~~~~~~~~
-=== DO NOT EDIT THIS FILE! ===-

Path: ...\2001. Estrella Morente - Calle Del Aire {2001, Spain, Virgin 50999 9 47620 2 0}

01 -=- 01 - Nana.flac -=- CDDA (100%)
02 -=- 02 - Que quieres que te traiga, que voy a Burgos.flac -=- CDDA (100%)
03 -=- 03 - Caracol.flac -=- CDDA (100%)
04 -=- 04 - Los cuatro muleros.flac -=- CDDA (100%)
05 -=- 05 - Noche de Paz.flac -=- CDDA (100%)
06 -=- 06 - Tangos del Chavico.flac -=- CDDA (100%)
07 -=- 07 - Cancion de los Pastores.flac -=- CDDA (100%)
08 -=- 08 - Salve Gitana del Sacromonte.flac -=- CDDA (100%)
09 -=- 09 - Calle del aire.flac -=- CDDA (100%)
10 -=- 10 - Tabanco.flac -=- CDDA (100%)
11 -=- 11 - Buleria por Solea.flac -=- CDDA (100%)
12 -=- 12 - Regalo de Navidad.flac -=- CDDA (100%)

Summary 100,00% CDDA

Estrella Morente: vocal
Musicians:
Chano Dominguez: piano
Emilio Maya: guitar
Caсizares: guitar
Alfredo Lagos: guitar
Victor Merlo: double bass
#77Страна-производитель диска: Spain
Год первого выпуска: 2006
Год настоящего издания: 2006
Издатель (лейбл): EMI Music Spain S.A../ Virgin
Номер по каталогу: 0946 3 65264 2 3
Format: CD, Album
Аудиокодек: FLAC (*.flac)
Тип рипа: tracks+.cue
Битрейт аудио: lossless
Продолжительность: 00:55:27
Источник (релизер): tinuviel (permission)
Наличие сканов в содержимом раздачи: да
Треклист:
01. Taranta (La Joya) (02:48)
02. Tangos de Grana (La Gazpacha, La Repompa, La Tia Concha) (05:48)
03. Zambra (04:11)
04. La noche de mi amor (Chavela) (03:47)
05. Vuelvo al Sur (Rocio Jurado) (04:15)
06. Nana (Yerma) (05:18)
07. Ay Maricruz (Imperio Argentina) (03:06)
08. Volver (Penelope Cruz) (03:37)
09. Nostalgias (Susana Renaldi) (06:57)
10. Buleria (La Perla de Cadiz) (04:25)
11. Taranta (Carmen Linares) (02:31)
12. Solea (Pastora) (03:33)
13. Ne me quitte pas (Nina Simone) (05:05)
Код: Выделить всё
Exact Audio Copy V0.99 prebeta 4 from 23. January 2008

EAC extraction logfile from 6. February 2010, 20:40

Estrella Morente / Mujeres

Used drive  : Optiarc DVD RW AD-7200A   Adapter: 3  ID: 0

Read mode               : Secure
Utilize accurate stream : Yes
Defeat audio cache      : Yes
Make use of C2 pointers : No

Read offset correction                      : 48
Overread into Lead-In and Lead-Out          : No
Fill up missing offset samples with silence : Yes
Delete leading and trailing silent blocks   : No
Null samples used in CRC calculations       : Yes
Used interface                              : Installed external ASPI interface
Gap handling                                : Appended to previous track

Used output format              : User Defined Encoder
Selected bitrate                : 256 kBit/s
Quality                         : High
Add ID3 tag                     : No
Command line compressor         : C:\Program Files\Exact Audio Copy\Flac\flac.exe
Additional command line options : -8 -V -T "ARTIST=%a" -T "TITLE=%t" -T "ALBUM=%g" -T "DATE=%y" -T "TRACKNUMBER=%n" -T "GENRE=%m" -T "COMMENT=EAC FLAC -8" %s

TOC of the extracted CD

     Track |   Start  |  Length  | Start sector | End sector
    ---------------------------------------------------------
        1  |  0:00.00 |  2:48.54 |         0    |    12653
        2  |  2:48.54 |  5:48.12 |     12654    |    38765
        3  |  8:36.66 |  4:11.65 |     38766    |    57655
        4  | 12:48.56 |  3:47.39 |     57656    |    74719
        5  | 16:36.20 |  4:15.50 |     74720    |    93894
        6  | 20:51.70 |  5:18.31 |     93895    |   117775
        7  | 26:10.26 |  3:06.44 |    117776    |   131769
        8  | 29:16.70 |  3:37.64 |    131770    |   148108
        9  | 32:54.59 |  6:57.33 |    148109    |   179416
       10  | 39:52.17 |  4:25.27 |    179417    |   199318
       11  | 44:17.44 |  2:31.07 |    199319    |   210650
       12  | 46:48.51 |  3:33.24 |    210651    |   226649
       13  | 50:22.00 |  5:05.42 |    226650    |   249566
       14  | 57:59.42 | 15:58.33 |    260967    |   332849

Track  1

     Filename E:\Rips\01 - Taranta (La Joya).wav

     Pre-gap length  0:00:02.00

     Peak level 97.7 %
     Track quality 100.0 %
     Test CRC 832FC82E
     Copy CRC 832FC82E
     Accurately ripped (confidence 2)  [C42BAFF0]
     Copy OK

Track  2

     Filename E:\Rips\02 - Tangos de Grana (La Gazpacha, La Repompa, La Tia Concha).wav

     Peak level 97.7 %
     Track quality 100.0 %
     Test CRC 4E435A72
     Copy CRC 4E435A72
     Track not present in AccurateRip database
     Copy OK

Track  3

     Filename E:\Rips\03 - Zambra.wav

     Peak level 99.9 %
     Track quality 100.0 %
     Test CRC 60AD4F81
     Copy CRC 60AD4F81
     Accurately ripped (confidence 2)  [EDA081A9]
     Copy OK

Track  4

     Filename E:\Rips\04 - La noche de mi amor (Chavela).wav

     Peak level 97.7 %
     Track quality 100.0 %
     Test CRC 6A86404C
     Copy CRC 6A86404C
     Track not present in AccurateRip database
     Copy OK

Track  5

     Filename E:\Rips\05 - Vuelvo al Sur (Rocio Jurado).wav

     Peak level 97.7 %
     Track quality 99.9 %
     Test CRC BEBA6D12
     Copy CRC BEBA6D12
     Track not present in AccurateRip database
     Copy OK

Track  6

     Filename E:\Rips\06 - Nana (Yerma).wav

     Peak level 97.7 %
     Track quality 99.9 %
     Test CRC 4CDFB08E
     Copy CRC 4CDFB08E
     Accurately ripped (confidence 2)  [D983BBF5]
     Copy OK

Track  7

     Filename E:\Rips\07 - Ay Maricruz (Imperio Argentina).wav

     Peak level 97.7 %
     Track quality 100.0 %
     Test CRC 1032C04C
     Copy CRC 1032C04C
     Accurately ripped (confidence 2)  [67F194EF]
     Copy OK

Track  8

     Filename E:\Rips\08 - Volver (Penelope Cruz).wav

     Peak level 97.7 %
     Track quality 99.9 %
     Test CRC 5A97D5D5
     Copy CRC 5A97D5D5
     Track not present in AccurateRip database
     Copy OK

Track  9

     Filename E:\Rips\09 - Nostalgias (Susana Renaldi).wav

     Peak level 97.7 %
     Track quality 100.0 %
     Test CRC F6120FCC
     Copy CRC F6120FCC
     Accurately ripped (confidence 2)  [D233D131]
     Copy OK

Track 10

     Filename E:\Rips\10 - Buleria (La Perla de Cadiz).wav

     Peak level 97.7 %
     Track quality 100.0 %
     Test CRC 24027673
     Copy CRC 24027673
     Accurately ripped (confidence 2)  [32DDE6FF]
     Copy OK

Track 11

     Filename E:\Rips\11 - Taranta (Carmen Linares).wav

     Peak level 97.7 %
     Track quality 99.9 %
     Test CRC 0B649F7E
     Copy CRC 0B649F7E
     Track not present in AccurateRip database
     Copy OK

Track 12

     Filename E:\Rips\12 - Solea (Pastora).wav

     Peak level 97.7 %
     Track quality 100.0 %
     Test CRC 62E4B77E
     Copy CRC 62E4B77E
     Accurately ripped (confidence 2)  [A7824F69]
     Copy OK

Track 13

     Filename E:\Rips\13 - Ne me quitte pas (Nina Simone).wav

     Peak level 97.7 %
     Track quality 99.9 %
     Test CRC 8A185072
     Copy CRC 8A185072
     Accurately ripped (confidence 2)  [C27796F4]
     Copy OK

 8 track(s) accurately ripped
 5 track(s) not present in the AccurateRip database

Some tracks could not be verified as accurate

No errors occurred

End of status report
Код: Выделить всё
REM GENRE Flamenco
REM DATE 2006
REM DISCID D211560E
REM COMMENT "ExactAudioCopy v0.99pb4"
PERFORMER "Estrella Morente"
TITLE "Mujeres"
FILE "01 - Taranta (La Joya).wav" WAVE
  TRACK 01 AUDIO
    TITLE "Taranta (La Joya)"
    PERFORMER "Estrella Morente"
    INDEX 01 00:00:00
FILE "02 - Tangos de Grana (La Gazpacha,...).wav" WAVE
  TRACK 02 AUDIO
    TITLE "Tangos de Grana (La Gazpacha, La Repompa, La Tia Concha)"
    PERFORMER "Estrella Morente"
    INDEX 01 00:00:00
FILE "03 - Zambra.wav" WAVE
  TRACK 03 AUDIO
    TITLE "Zambra"
    PERFORMER "Estrella Morente"
    INDEX 01 00:00:00
FILE "04 - La noche de mi amor (Chavela).wav" WAVE
  TRACK 04 AUDIO
    TITLE "La noche de mi amor (Chavela)"
    PERFORMER "Estrella Morente"
    INDEX 01 00:00:00
FILE "05 - Vuelvo al Sur (Rocio Jurado).wav" WAVE
  TRACK 05 AUDIO
    TITLE "Vuelvo al Sur (Rocio Jurado)"
    PERFORMER "Estrella Morente"
    INDEX 01 00:00:00
FILE "06 - Nana (Yerma).wav" WAVE
  TRACK 06 AUDIO
    TITLE "Nana (Yerma)"
    PERFORMER "Estrella Morente"
    INDEX 01 00:00:00
FILE "07 - Ay Maricruz (Imperio Argentina).wav" WAVE
  TRACK 07 AUDIO
    TITLE "Ay Maricruz (Imperio Argentina)"
    PERFORMER "Estrella Morente"
    INDEX 01 00:00:00
FILE "08 - Volver (Penelope Cruz).wav" WAVE
  TRACK 08 AUDIO
    TITLE "Volver (Penelope Cruz)"
    PERFORMER "Estrella Morente"
    INDEX 01 00:00:00
FILE "09 - Nostalgias (Susana Renaldi).wav" WAVE
  TRACK 09 AUDIO
    TITLE "Nostalgias (Susana Renaldi)"
    PERFORMER "Estrella Morente"
    INDEX 01 00:00:00
FILE "10 - Buleria (La Perla de Cadiz).wav" WAVE
  TRACK 10 AUDIO
    TITLE "Buleria (La Perla de Cadiz)"
    PERFORMER "Estrella Morente"
    INDEX 01 00:00:00
FILE "11 - Taranta (Carmen Linares).wav" WAVE
  TRACK 11 AUDIO
    TITLE "Taranta (Carmen Linares)"
    PERFORMER "Estrella Morente"
    INDEX 01 00:00:00
FILE "12 - Solea (Pastora).wav" WAVE
  TRACK 12 AUDIO
    TITLE "Solea (Pastora)"
    PERFORMER "Estrella Morente"
    INDEX 01 00:00:00
FILE "13 - Ne me quitte pas (Nina Simone).wav" WAVE
  TRACK 13 AUDIO
    TITLE "Ne me quitte pas (Nina Simone)"
    PERFORMER "Estrella Morente"
    INDEX 01 00:00:00
Код: Выделить всё
AUDIOCHECKER v2.0 beta (build 457) - by Dester - opdester@freemail.hu
~~~~~~~~~~~~~~~~~~~~~~~~~~~~~~~~~~
-=== DO NOT EDIT THIS FILE! ===-

Path: ...\2006. Estrella Morente - Mujeres {2006, Spain, EMI 0946 3 65264 2 3}

01 -=- 01 - Taranta (La Joya).flac -=- CDDA (100%)
02 -=- 02 - Tangos de Grana (La Gazpacha,...).flac -=- CDDA (100%)
03 -=- 03 - Zambra.flac -=- CDDA (100%)
04 -=- 04 - La noche de mi amor (Chavela).flac -=- CDDA (100%)
05 -=- 05 - Vuelvo al Sur (Rocio Jurado).flac -=- CDDA (100%)
06 -=- 06 - Nana (Yerma).flac -=- CDDA (100%)
07 -=- 07 - Ay Maricruz (Imperio Argentina).flac -=- CDDA (100%)
08 -=- 08 - Volver (Penelope Cruz).flac -=- CDDA (100%)
09 -=- 09 - Nostalgias (Susana Renaldi).flac -=- CDDA (100%)
10 -=- 10 - Buleria (La Perla de Cadiz).flac -=- CDDA (100%)
11 -=- 11 - Taranta (Carmen Linares).flac -=- CDDA (100%)
12 -=- 12 - Solea (Pastora).flac -=- CDDA (100%)
13 -=- 13 - Ne me quitte pas (Nina Simone).flac -=- CDDA (100%)

Summary 100,00% CDDA

Estrella Morente: voice
Alfredo Lagos, Rafael Riqueni, Montoyita: guitar
Leo Sujatovich, Ricardo Miño: piano
Grupo de laúdes y bandurrias del Albaycín (Manolo Vera dir.): bandurria, lute, guitar
Victor Merlo: double bass
Bandolero: percussion
A. Carbonell & A. Gabarre: Handclaps
#77Страна-производитель диска: Spain
Год первого выпуска: 2012
Год настоящего издания: 2012
Издатель (лейбл): EMI Music Spain S.L.
Номер по каталогу: 50999 7 39680 2 3/ 7 39680 2
Format: CD, Album, Reissue
Аудиокодек: FLAC (*.flac)
Тип рипа: tracks+.cue
Битрейт аудио: lossless
Продолжительность: 01:06:50
Источник (релизер): tinuviel (permission)
Наличие сканов в содержимом раздачи:
Треклист:
01. Pregón de la Moras (Pregón) con Michael Nyman (03:11)
02. Seguirillas de la verdad (Seguirillas) con Paco de Lucia (05:11)
03. Find me in your dreams (En tus sueños) con Pat Metheny (03:38)
04. Como la corriente (Bulería) con Isidro Muñoz (05:13)
05. La Estrella (Tangos) con Antonio, Josemi y Juan Carmona (04:30)
06. Le di a la caza alcance (Réquiem) con Michael Nyman (04:18)
07. A Lola (Sevillanas) con Montoyita (04:13)
08. Canción del bembón (Tangos) con Montoyita (04:22)
09. En un sueño viniste (Tanguillos) con Vicente Amigo (04:16)
10. Bulería del amado (Bulerías) con Tomatito (04:07)
11. Cuba-Cái (Rumba) con Alain Pérez (05:36)
12. La habanera imposible (Habanera) con Vicente Amigo (04:37)
13. Tangos toreros (Tangos) con Antonio, Josemi y Juan Carmona (04:20)
14. Fernando Camisa (Sevillanas) con Alfredo Lagos (03:24)
15. Adagio (con Enrique Morente) (05:47)
Код: Выделить всё
Exact Audio Copy V1.0 beta 3 from 29. August 2011

EAC extraction logfile from 6. March 2013, 0:00

Estrella Morente / Autorretrato

Used drive  : Optiarc DVD RW AD-7200A   Adapter: 2  ID: 0

Read mode               : Secure
Utilize accurate stream : Yes
Defeat audio cache      : Yes
Make use of C2 pointers : No

Read offset correction                      : 48
Overread into Lead-In and Lead-Out          : No
Fill up missing offset samples with silence : Yes
Delete leading and trailing silent blocks   : No
Null samples used in CRC calculations       : Yes
Used interface                              : Installed external ASPI interface
Gap handling                                : Appended to previous track

Used output format              : User Defined Encoder
Selected bitrate                : 896 kBit/s
Quality                         : High
Add ID3 tag                     : No
Command line compressor         : C:\Program Files (x86)\Exact Audio Copy\Flac\flac.exe
Additional command line options : -8 -V -T "ARTIST=%artist%" -T "TITLE=%title%" -T "ALBUM=%albumtitle%" -T "DATE=%year%" -T "TRACKNUMBER=%tracknr%" -T "TOTALTRACKS=%numtracks%" -T "GENRE=%genre%" -T "ALBUMARTIST=%albumartist%" -T "ALBUM ARTIST=%albumartist%" -T "COMMENT=EAC Secure Mode, Test & Copy, AccurateRip, FLAC -8" %source%

TOC of the extracted CD

     Track |   Start  |  Length  | Start sector | End sector
    ---------------------------------------------------------
        1  |  0:00.00 |  3:11.04 |         0    |    14328
        2  |  3:11.04 |  5:11.29 |     14329    |    37682
        3  |  8:22.33 |  3:38.72 |     37683    |    54104
        4  | 12:01.30 |  5:13.60 |     54105    |    77639
        5  | 17:15.15 |  4:30.32 |     77640    |    97921
        6  | 21:45.47 |  4:18.00 |     97922    |   117271
        7  | 26:03.47 |  4:13.55 |    117272    |   136301
        8  | 30:17.27 |  4:22.41 |    136302    |   155992
        9  | 34:39.68 |  4:16.16 |    155993    |   175208
       10  | 38:56.09 |  4:07.60 |    175209    |   193793
       11  | 43:03.69 |  5:36.70 |    193794    |   219063
       12  | 48:40.64 |  4:37.09 |    219064    |   239847
       13  | 53:17.73 |  4:20.37 |    239848    |   259384
       14  | 57:38.35 |  3:24.04 |    259385    |   274688
       15  | 61:02.39 |  5:47.44 |    274689    |   300757

Track  1

     Filename H:\Rips\01 - Pregon de la Moras (Pregon) con Michael Nyman.wav

     Pre-gap length  0:00:02.00

     Peak level 98.8 %
     Extraction speed 2.2 X
     Track quality 100.0 %
     Test CRC 885F6B0F
     Copy CRC 885F6B0F
     Track not present in AccurateRip database
     Copy OK

Track  2

     Filename H:\Rips\02 - Seguirillas de la verdad (Seguirillas) con Paco de Lucia.wav

     Pre-gap length  0:00:03.19

     Peak level 100.0 %
     Extraction speed 2.4 X
     Track quality 99.9 %
     Test CRC 35B29531
     Copy CRC 35B29531
     Track not present in AccurateRip database
     Copy OK

Track  3

     Filename H:\Rips\03 - Find me in your dreams (En tus suenos) con Pat Metheny.wav

     Pre-gap length  0:00:03.32

     Peak level 98.8 %
     Extraction speed 2.7 X
     Track quality 100.0 %
     Test CRC 8AC00EA3
     Copy CRC 8AC00EA3
     Track not present in AccurateRip database
     Copy OK

Track  4

     Filename H:\Rips\04 - Como la corriente (Buleria) con Isidro Munoz.wav

     Pre-gap length  0:00:03.04

     Peak level 98.8 %
     Extraction speed 3.1 X
     Track quality 100.0 %
     Test CRC A970A28F
     Copy CRC A970A28F
     Track not present in AccurateRip database
     Copy OK

Track  5

     Filename H:\Rips\05 - La Estrella (Tangos) con Antonio, Josemi y Juan Carmona.wav

     Pre-gap length  0:00:03.14

     Peak level 98.8 %
     Extraction speed 3.3 X
     Track quality 100.0 %
     Test CRC D5C6FCBE
     Copy CRC D5C6FCBE
     Track not present in AccurateRip database
     Copy OK

Track  6

     Filename H:\Rips\06 - Le di a la caza alcance (Requiem) con Michael Nyman.wav

     Pre-gap length  0:00:03.08

     Peak level 98.8 %
     Extraction speed 3.4 X
     Track quality 100.0 %
     Test CRC FFB9F64C
     Copy CRC FFB9F64C
     Track not present in AccurateRip database
     Copy OK

Track  7

     Filename H:\Rips\07 - A Lola (Sevillanas) con Montoyita.wav

     Pre-gap length  0:00:03.17

     Peak level 98.8 %
     Extraction speed 3.6 X
     Track quality 100.0 %
     Test CRC 07D271C4
     Copy CRC 07D271C4
     Track not present in AccurateRip database
     Copy OK

Track  8

     Filename H:\Rips\08 - Cancion del bembon (Tangos) con Montoyita.wav

     Pre-gap length  0:00:03.12

     Peak level 98.8 %
     Extraction speed 3.8 X
     Track quality 100.0 %
     Test CRC 5A527C3D
     Copy CRC 5A527C3D
     Track not present in AccurateRip database
     Copy OK

Track  9

     Filename H:\Rips\09 - En un sueno viniste (Tanguillos) con Vicente Amigo.wav

     Pre-gap length  0:00:03.16

     Peak level 98.8 %
     Extraction speed 3.9 X
     Track quality 100.0 %
     Test CRC BD0814B5
     Copy CRC BD0814B5
     Track not present in AccurateRip database
     Copy OK

Track 10

     Filename H:\Rips\10 - Buleria del amado (Bulerias) con Tomatito.wav

     Pre-gap length  0:00:03.12

     Peak level 98.8 %
     Extraction speed 4.1 X
     Track quality 100.0 %
     Test CRC 68704949
     Copy CRC 68704949
     Track not present in AccurateRip database
     Copy OK

Track 11

     Filename H:\Rips\11 - Cuba-Cai (Rumba) con Alain Perez.wav

     Pre-gap length  0:00:03.25

     Peak level 98.8 %
     Extraction speed 4.4 X
     Track quality 100.0 %
     Test CRC 80BD1796
     Copy CRC 80BD1796
     Track not present in AccurateRip database
     Copy OK

Track 12

     Filename H:\Rips\12 - La habanera imposible (Habanera) con Vicente Amigo.wav

     Pre-gap length  0:00:03.54

     Peak level 98.8 %
     Extraction speed 4.4 X
     Track quality 100.0 %
     Test CRC E3FFAA08
     Copy CRC E3FFAA08
     Track not present in AccurateRip database
     Copy OK

Track 13

     Filename H:\Rips\13 - Tangos toreros (Tangos) con Antonio, Josemi y Juan Carmona.wav

     Pre-gap length  0:00:02.74

     Peak level 98.8 %
     Extraction speed 4.5 X
     Track quality 100.0 %
     Test CRC 0C587A68
     Copy CRC 0C587A68
     Track not present in AccurateRip database
     Copy OK

Track 14

     Filename H:\Rips\14 - Fernando Camisa (Sevillanas) con Alfredo Lagos.wav

     Pre-gap length  0:00:03.02

     Peak level 98.8 %
     Extraction speed 4.5 X
     Track quality 100.0 %
     Test CRC FFC61698
     Copy CRC FFC61698
     Track not present in AccurateRip database
     Copy OK

Track 15

     Filename H:\Rips\15 - Adagio (con Enrique Morente).wav

     Pre-gap length  0:00:02.72

     Peak level 98.8 %
     Extraction speed 4.5 X
     Track quality 99.9 %
     Test CRC 2A587CF1
     Copy CRC 2A587CF1
     Track not present in AccurateRip database
     Copy OK

None of the tracks are present in the AccurateRip database

No errors occurred

End of status report

==== Log checksum F23C8C68C6EDA821D91040C298663317EB47E21411AFAF0B4AE4F3FB436C075C ====
Код: Выделить всё
REM GENRE Flamenco
REM DATE 2012
REM DISCID D20FAA0F
REM COMMENT "ExactAudioCopy v1.0b3"
PERFORMER "Estrella Morente"
TITLE "Autorretrato"
FILE "01 - Pregon de la Moras (Pregon) con Michael Nyman.wav" WAVE
  TRACK 01 AUDIO
    TITLE "Pregon de la Moras (Pregon) con Michael Nyman"
    PERFORMER "Estrella Morente"
    INDEX 01 00:00:00
  TRACK 02 AUDIO
    TITLE "Seguirillas de la verdad (Seguirillas) con Paco de Lucia"
    PERFORMER "Estrella Morente"
    INDEX 00 03:07:60
FILE "02 - Seguirillas de la verdad (Seguirillas) con Paco de Lucia.wav" WAVE
    INDEX 01 00:00:00
  TRACK 03 AUDIO
    TITLE "Find me in your dreams (En tus suenos) con Pat Metheny"
    PERFORMER "Estrella Morente"
    INDEX 00 05:07:72
FILE "03 - Find me in your dreams (En tus suenos) con Pat Metheny.wav" WAVE
    INDEX 01 00:00:00
  TRACK 04 AUDIO
    TITLE "Como la corriente (Buleria) con Isidro Munoz"
    PERFORMER "Estrella Morente"
    INDEX 00 03:35:68
FILE "04 - Como la corriente (Buleria) con Isidro Munoz.wav" WAVE
    INDEX 01 00:00:00
  TRACK 05 AUDIO
    TITLE "La Estrella (Tangos) con Antonio, Josemi y Juan Carmona"
    PERFORMER "Estrella Morente"
    INDEX 00 05:10:46
FILE "05 - La Estrella (Tangos) con Antonio, Josemi y Juan Carmona.wav" WAVE
    INDEX 01 00:00:00
  TRACK 06 AUDIO
    TITLE "Le di a la caza alcance (Requiem) con Michael Nyman"
    PERFORMER "Estrella Morente"
    INDEX 00 04:27:24
FILE "06 - Le di a la caza alcance (Requiem) con Michael Nyman.wav" WAVE
    INDEX 01 00:00:00
  TRACK 07 AUDIO
    TITLE "A Lola (Sevillanas) con Montoyita"
    PERFORMER "Estrella Morente"
    INDEX 00 04:14:58
FILE "07 - A Lola (Sevillanas) con Montoyita.wav" WAVE
    INDEX 01 00:00:00
  TRACK 08 AUDIO
    TITLE "Cancion del bembon (Tangos) con Montoyita"
    PERFORMER "Estrella Morente"
    INDEX 00 04:10:43
FILE "08 - Cancion del bembon (Tangos) con Montoyita.wav" WAVE
    INDEX 01 00:00:00
  TRACK 09 AUDIO
    TITLE "En un sueno viniste (Tanguillos) con Vicente Amigo"
    PERFORMER "Estrella Morente"
    INDEX 00 04:19:25
FILE "09 - En un sueno viniste (Tanguillos) con Vicente Amigo.wav" WAVE
    INDEX 01 00:00:00
  TRACK 10 AUDIO
    TITLE "Buleria del amado (Bulerias) con Tomatito"
    PERFORMER "Estrella Morente"
    INDEX 00 04:13:04
FILE "10 - Buleria del amado (Bulerias) con Tomatito.wav" WAVE
    INDEX 01 00:00:00
  TRACK 11 AUDIO
    TITLE "Cuba-Cai (Rumba) con Alain Perez"
    PERFORMER "Estrella Morente"
    INDEX 00 04:04:35
FILE "11 - Cuba-Cai (Rumba) con Alain Perez.wav" WAVE
    INDEX 01 00:00:00
  TRACK 12 AUDIO
    TITLE "La habanera imposible (Habanera) con Vicente Amigo"
    PERFORMER "Estrella Morente"
    INDEX 00 05:33:16
FILE "12 - La habanera imposible (Habanera) con Vicente Amigo.wav" WAVE
    INDEX 01 00:00:00
  TRACK 13 AUDIO
    TITLE "Tangos toreros (Tangos) con Antonio, Josemi y Juan Carmona"
    PERFORMER "Estrella Morente"
    INDEX 00 04:34:10
FILE "13 - Tangos toreros (Tangos) con Antonio, Josemi y Juan Carmona.wav" WAVE
    INDEX 01 00:00:00
  TRACK 14 AUDIO
    TITLE "Fernando Camisa (Sevillanas) con Alfredo Lagos"
    PERFORMER "Estrella Morente"
    INDEX 00 04:17:35
FILE "14 - Fernando Camisa (Sevillanas) con Alfredo Lagos.wav" WAVE
    INDEX 01 00:00:00
  TRACK 15 AUDIO
    TITLE "Adagio (con Enrique Morente)"
    PERFORMER "Estrella Morente"
    INDEX 00 03:21:07
FILE "15 - Adagio (con Enrique Morente).wav" WAVE
    INDEX 01 00:00:00
Код: Выделить всё
AUDIOCHECKER v2.0 beta (build 457) - by Dester - opdester@freemail.hu
~~~~~~~~~~~~~~~~~~~~~~~~~~~~~~~~~~
-=== DO NOT EDIT THIS FILE! ===-

Path: ...\2012. Estrella Morente - Autorretrato {2012, Spain, EMI 50999 7 39680 2 3}

01 -=- 01 - Pregon de la Moras (Pregon) con Michael Nyman.flac -=- CDDA (100%)
02 -=- 02 - Seguirillas de la verdad (Seguirillas) con Paco de Lucia.flac -=- CDDA (100%)
03 -=- 03 - Find me in your dreams (En tus suenos) con Pat Metheny.flac -=- CDDA (99%)
04 -=- 04 - Como la corriente (Buleria) con Isidro Munoz.flac -=- CDDA (100%)
05 -=- 05 - La Estrella (Tangos) con Antonio, Josemi y Juan Carmona.flac -=- CDDA (100%)
06 -=- 06 - Le di a la caza alcance (Requiem) con Michael Nyman.flac -=- CDDA (100%)
07 -=- 07 - A Lola (Sevillanas) con Montoyita.flac -=- CDDA (100%)
08 -=- 08 - Cancion del bembon (Tangos) con Montoyita.flac -=- CDDA (100%)
09 -=- 09 - En un sueno viniste (Tanguillos) con Vicente Amigo.flac -=- CDDA (100%)
10 -=- 10 - Buleria del amado (Bulerias) con Tomatito.flac -=- CDDA (100%)
11 -=- 11 - Cuba-Cai (Rumba) con Alain Perez.flac -=- CDDA (100%)
12 -=- 12 - La habanera imposible (Habanera) con Vicente Amigo.flac -=- CDDA (100%)
13 -=- 13 - Tangos toreros (Tangos) con Antonio, Josemi y Juan Carmona.flac -=- CDDA (100%)
14 -=- 14 - Fernando Camisa (Sevillanas) con Alfredo Lagos.flac -=- CDDA (100%)
15 -=- 15 - Adagio (con Enrique Morente).flac -=- CDDA (99%)

Summary 99,87% CDDA

Lucky Losada, Bandolero, Morito, Israel Suárez "El Piraña", Ángel Cepillo, Fernando Fabier, Ariel Briguez Ruiz, Yuri Nogueira: Percussion
El Grilo, Juan Grande, Ané, Chicharo, El Bo, Soleá Morente, José Enrique Morente, Ángel Gabarre, Pedro Gabarre "Popo", Antonio Carbonell, Juan José Amador, El Bola, Triana Heredia, Las Negris, Enrique Heredia "El Negri", Victoria Carbonell "La Globo", Juañares: Handclaps
José Enrique Morente, Soleá Morente, Andrés Marchena, Consuelo Romero, Juañares, Antonio Carbonell, Noelia Millares, Raquel Enamorado, Furu, J. José Amador, E Bola, Triana Heredia, Las Negris, Juan Márquez, Pepe Luis Carmona, Luisi Carmona, Daria Delgado, Alain Pérez: Vocals
Josemi Carmona, Paquete: Mandola
Antonio Ramos "Maca": Bass
Javier Colina: Double Bass
Fernando Hurtado, Inoidel González: Tenor Sax
Julien Ferrer Matamoros: Alto Sax
Segundo Mijares, Juan Mungía: Trumpet
Julien Ferrer: Trombone
David Cerreduela, José Carbonell Serrano "Monty", Moisés Santiago: Guitar
Adrian Schinoff: Piano
Adrian Schinoff, Tony Romero, Javier Masso, "Caramelo": Keyboards
Angie Bao: Drums
Estrella Morente: Vocal, Castanets
Lola Flores: Sample Voice
#77Страна-производитель диска: Spain
Год первого выпуска: 2014
Год настоящего издания: 2014
Издатель (лейбл): Calle 54 Records/ Sony Music
Номер по каталогу: 88875011922
Format: CD, Album
Аудиокодек: FLAC (*.flac)
Тип рипа: tracks+.cue
Битрейт аудио: lossless
Продолжительность: 01:06:59
Источник (релизер): rodcas2 (permission)
Наличие сканов в содержимом раздачи: да
Треклист:
01. Mañana De Carnaval (01:49)
02. Amar En Paz (04:14)
03. Dindi (03:23)
04. Amargura (04:48)
05. Cariñosa (04:18)
06. Tras La Puerta (04:04)
07. Fruta Buena (04:42)
08. Si No Estás (04:06)
09. Baile Del Desamor (03:37)
10. Soledad (04:50)
11. Rosa (04:23)
12. Labios Que Besé (04:21)
13. Y Machacó Mi Corazón (06:55)
14. Si Todos Fuesen Igual A Ti (02:52)
15. A Decir Adiós (05:13)
16. Bachiana Nº 5 (02:45)
Код: Выделить всё
Exact Audio Copy V1.0 beta 3 from 29. August 2011

EAC extraction logfile from 28. January 2015, 17:18

Estrella Morente / Amar en Paz

Used drive  : HL-DT-STDVDRAM GSA-H10N   Adapter: 0  ID: 1

Read mode               : Secure
Utilize accurate stream : Yes
Defeat audio cache      : Yes
Make use of C2 pointers : No

Read offset correction                      : 667
Overread into Lead-In and Lead-Out          : No
Fill up missing offset samples with silence : Yes
Delete leading and trailing silent blocks   : No
Null samples used in CRC calculations       : Yes
Used interface                              : Native Win32 interface for Win NT & 2000
Gap handling                                : Appended to previous track

Used output format              : User Defined Encoder
Selected bitrate                : 896 kBit/s
Quality                         : High
Add ID3 tag                     : No
Command line compressor         : C:\Program Files\FLAC\flac.exe
Additional command line options : -8 -V -T "ARTIST=%artist%" -T "TITLE=%title%" -T "ALBUM=%albumtitle%" -T "DATE=%year%" -T "TRACKNUMBER=%tracknr%" -T "TOTALTRACKS=%numtracks%" -T "GENRE=%genre%" -T "ALBUMARTIST=%albumartist%" -T "ALBUM ARTIST=%albumartist%" -T "COMMENT=EAC Secure Mode, Test & Copy, AccurateRip, FLAC -8" %source%

TOC of the extracted CD

     Track |   Start  |  Length  | Start sector | End sector
    ---------------------------------------------------------
        1  |  0:00.00 |  1:51.25 |         0    |     8349
        2  |  1:51.25 |  4:16.44 |      8350    |    27593
        3  |  6:07.69 |  3:25.44 |     27594    |    43012
        4  |  9:33.38 |  4:50.38 |     43013    |    64800
        5  | 14:24.01 |  4:20.73 |     64801    |    84373
        6  | 18:44.74 |  4:06.69 |     84374    |   102892
        7  | 22:51.68 |  4:44.74 |    102893    |   124266
        8  | 27:36.67 |  4:08.55 |    124267    |   142921
        9  | 31:45.47 |  3:39.46 |    142922    |   159392
       10  | 35:25.18 |  4:52.73 |    159393    |   181365
       11  | 40:18.16 |  4:25.38 |    181366    |   201278
       12  | 44:43.54 |  4:23.05 |    201279    |   221008
       13  | 49:06.59 |  6:57.06 |    221009    |   252289
       14  | 56:03.65 |  2:54.54 |    252290    |   265393
       15  | 58:58.44 |  5:15.30 |    265394    |   289048
       16  | 64:13.74 |  2:45.70 |    289049    |   301493

Track  1

     Filename D:\EAC-Ripeos\01 - Manana De Carnaval.wav

     Pre-gap length  0:00:02.00

     Peak level 93.4 %
     Extraction speed 3.8 X
     Track quality 100.0 %
     Test CRC 804DF8E2
     Copy CRC 804DF8E2
     Track not present in AccurateRip database
     Copy OK

Track  2

     Filename D:\EAC-Ripeos\02 - Amar En Paz.wav

     Pre-gap length  0:00:02.00

     Peak level 93.5 %
     Extraction speed 4.6 X
     Track quality 100.0 %
     Test CRC F4F5BDFD
     Copy CRC F4F5BDFD
     Track not present in AccurateRip database
     Copy OK

Track  3

     Filename D:\EAC-Ripeos\03 - Dindi.wav

     Pre-gap length  0:00:02.00

     Peak level 87.1 %
     Extraction speed 5.0 X
     Track quality 100.0 %
     Test CRC 0FF4D212
     Copy CRC 0FF4D212
     Track not present in AccurateRip database
     Copy OK

Track  4

     Filename D:\EAC-Ripeos\04 - Amargura.wav

     Pre-gap length  0:00:02.00

     Peak level 88.5 %
     Extraction speed 4.7 X
     Track quality 99.9 %
     Test CRC 75B78697
     Copy CRC 75B78697
     Track not present in AccurateRip database
     Copy OK

Track  5

     Filename D:\EAC-Ripeos\05 - Carinosa.wav

     Pre-gap length  0:00:02.00

     Peak level 96.0 %
     Extraction speed 5.7 X
     Track quality 100.0 %
     Test CRC 66E3A1F3
     Copy CRC 66E3A1F3
     Track not present in AccurateRip database
     Copy OK

Track  6

     Filename D:\EAC-Ripeos\06 - Tras La Puerta.wav

     Pre-gap length  0:00:02.00

     Peak level 88.7 %
     Extraction speed 5.9 X
     Track quality 100.0 %
     Test CRC 54843EE4
     Copy CRC 54843EE4
     Track not present in AccurateRip database
     Copy OK

Track  7

     Filename D:\EAC-Ripeos\07 - Fruta Buena.wav

     Pre-gap length  0:00:02.00

     Peak level 96.1 %
     Extraction speed 6.6 X
     Track quality 100.0 %
     Test CRC 1D1D67B5
     Copy CRC 1D1D67B5
     Track not present in AccurateRip database
     Copy OK

Track  8

     Filename D:\EAC-Ripeos\08 - Si No Estas.wav

     Pre-gap length  0:00:02.00

     Peak level 93.8 %
     Extraction speed 6.7 X
     Track quality 100.0 %
     Test CRC 4816D569
     Copy CRC 4816D569
     Track not present in AccurateRip database
     Copy OK

Track  9

     Filename D:\EAC-Ripeos\09 - Baile Del Desamor.wav

     Pre-gap length  0:00:02.00

     Peak level 93.9 %
     Extraction speed 5.3 X
     Track quality 99.9 %
     Test CRC 4BBA2E5F
     Copy CRC 4BBA2E5F
     Track not present in AccurateRip database
     Copy OK

Track 10

     Filename D:\EAC-Ripeos\10 - Soledad.wav

     Pre-gap length  0:00:02.00

     Peak level 96.1 %
     Extraction speed 7.4 X
     Track quality 100.0 %
     Test CRC CD9010E0
     Copy CRC CD9010E0
     Track not present in AccurateRip database
     Copy OK

Track 11

     Filename D:\EAC-Ripeos\11 - Rosa.wav

     Pre-gap length  0:00:02.00

     Peak level 96.0 %
     Extraction speed 7.4 X
     Track quality 100.0 %
     Test CRC F66DE73F
     Copy CRC F66DE73F
     Track not present in AccurateRip database
     Copy OK

Track 12

     Filename D:\EAC-Ripeos\12 - Labios Que Bese.wav

     Pre-gap length  0:00:02.00

     Peak level 90.7 %
     Extraction speed 6.1 X
     Track quality 100.0 %
     Test CRC 3B0F2804
     Copy CRC 3B0F2804
     Track not present in AccurateRip database
     Copy OK

Track 13

     Filename D:\EAC-Ripeos\13 - Y Machaco Mi Corazon.wav

     Pre-gap length  0:00:02.00

     Peak level 93.8 %
     Extraction speed 5.3 X
     Track quality 100.0 %
     Test CRC A09984D7
     Copy CRC A09984D7
     Track not present in AccurateRip database
     Copy OK

Track 14

     Filename D:\EAC-Ripeos\14 - Si Todos Fuesen Iguales ATi.wav

     Pre-gap length  0:00:02.00

     Peak level 84.1 %
     Extraction speed 4.7 X
     Track quality 100.0 %
     Test CRC 67065E01
     Copy CRC 67065E01
     Track not present in AccurateRip database
     Copy OK

Track 15

     Filename D:\EAC-Ripeos\15 - A Decir Adios.wav

     Pre-gap length  0:00:02.00

     Peak level 88.5 %
     Extraction speed 4.8 X
     Track quality 99.9 %
     Test CRC 70E64DAF
     Copy CRC 70E64DAF
     Track not present in AccurateRip database
     Copy OK

Track 16

     Filename D:\EAC-Ripeos\16 - Bachiana Numero 5.wav

     Pre-gap length  0:00:02.00

     Peak level 67.0 %
     Extraction speed 8.0 X
     Track quality 100.0 %
     Test CRC CEDED1AB
     Copy CRC CEDED1AB
     Track not present in AccurateRip database
     Copy OK

None of the tracks are present in the AccurateRip database

No errors occurred

End of status report

---- CUETools DB Plugin V2.1.3

[CTDB TOCID: MJIp0C8Cb7B.prL1WO7esDF8tPs-] disk not present in database, Submit result: MJIp0C8Cb7B.prL1WO7esDF8tPs- has been uploaded

==== Log checksum E10AB5787CB5D125281BC6C16A18742FD0BE96B6F67E12F29881925217255055 ====
Код: Выделить всё
REM GENRE Fusion
REM DATE 2014
REM DISCID ED0FB310
REM COMMENT "ExactAudioCopy v1.0b3"
PERFORMER "Estrella Morente"
TITLE "Amar en Paz"
FILE "01 - Manana De Carnaval.wav" WAVE
  TRACK 01 AUDIO
    TITLE "Manana De Carnaval"
    PERFORMER "Estrella Morente"
    FLAGS DCP
    INDEX 01 00:00:00
  TRACK 02 AUDIO
    TITLE "Amar En Paz"
    PERFORMER "Estrella Morente"
    FLAGS DCP
    INDEX 00 01:49:25
FILE "02 - Amar En Paz.wav" WAVE
    INDEX 01 00:00:00
  TRACK 03 AUDIO
    TITLE "Dindi"
    PERFORMER "Estrella Morente"
    FLAGS DCP
    INDEX 00 04:14:44
FILE "03 - Dindi.wav" WAVE
    INDEX 01 00:00:00
  TRACK 04 AUDIO
    TITLE "Amargura"
    PERFORMER "Estrella Morente"
    FLAGS DCP
    INDEX 00 03:23:44
FILE "04 - Amargura.wav" WAVE
    INDEX 01 00:00:00
  TRACK 05 AUDIO
    TITLE "Carinosa"
    PERFORMER "Estrella Morente"
    FLAGS DCP
    INDEX 00 04:48:38
FILE "05 - Carinosa.wav" WAVE
    INDEX 01 00:00:00
  TRACK 06 AUDIO
    TITLE "Tras La Puerta"
    PERFORMER "Estrella Morente"
    FLAGS DCP
    INDEX 00 04:18:73
FILE "06 - Tras La Puerta.wav" WAVE
    INDEX 01 00:00:00
  TRACK 07 AUDIO
    TITLE "Fruta Buena"
    PERFORMER "Estrella Morente"
    FLAGS DCP
    INDEX 00 04:04:69
FILE "07 - Fruta Buena.wav" WAVE
    INDEX 01 00:00:00
  TRACK 08 AUDIO
    TITLE "Si No Estas"
    PERFORMER "Estrella Morente"
    FLAGS DCP
    INDEX 00 04:42:74
FILE "08 - Si No Estas.wav" WAVE
    INDEX 01 00:00:00
  TRACK 09 AUDIO
    TITLE "Baile Del Desamor"
    PERFORMER "Estrella Morente"
    FLAGS DCP
    INDEX 00 04:06:55
FILE "09 - Baile Del Desamor.wav" WAVE
    INDEX 01 00:00:00
  TRACK 10 AUDIO
    TITLE "Soledad"
    PERFORMER "Estrella Morente"
    FLAGS DCP
    INDEX 00 03:37:46
FILE "10 - Soledad.wav" WAVE
    INDEX 01 00:00:00
  TRACK 11 AUDIO
    TITLE "Rosa"
    PERFORMER "Estrella Morente"
    FLAGS DCP
    INDEX 00 04:50:73
FILE "11 - Rosa.wav" WAVE
    INDEX 01 00:00:00
  TRACK 12 AUDIO
    TITLE "Labios Que Bese"
    PERFORMER "Estrella Morente"
    FLAGS DCP
    INDEX 00 04:23:38
FILE "12 - Labios Que Bese.wav" WAVE
    INDEX 01 00:00:00
  TRACK 13 AUDIO
    TITLE "Y Machaco Mi Corazon"
    PERFORMER "Estrella Morente"
    FLAGS DCP
    INDEX 00 04:21:05
FILE "13 - Y Machaco Mi Corazon.wav" WAVE
    INDEX 01 00:00:00
  TRACK 14 AUDIO
    TITLE "Si Todos Fuesen Iguales ATi"
    PERFORMER "Estrella Morente"
    FLAGS DCP
    INDEX 00 06:55:06
FILE "14 - Si Todos Fuesen Iguales ATi.wav" WAVE
    INDEX 01 00:00:00
  TRACK 15 AUDIO
    TITLE "A Decir Adios"
    PERFORMER "Estrella Morente"
    FLAGS DCP
    INDEX 00 02:52:54
FILE "15 - A Decir Adios.wav" WAVE
    INDEX 01 00:00:00
  TRACK 16 AUDIO
    TITLE "Bachiana Numero 5"
    PERFORMER "Estrella Morente"
    FLAGS DCP
    INDEX 00 05:13:30
FILE "16 - Bachiana Numero 5.wav" WAVE
    INDEX 01 00:00:00
Код: Выделить всё
AUDIOCHECKER v2.0 beta (build 457) - by Dester - opdester@freemail.hu
~~~~~~~~~~~~~~~~~~~~~~~~~~~~~~~~~~
-=== DO NOT EDIT THIS FILE! ===-

Path: ...\2014. Estrella Morente - Amar En Paz {2014, Spain, EMI 88875011922}

01 -=- 01 - Manana De Carnaval.flac -=- CDDA (100%)
02 -=- 02 - Amar En Paz.flac -=- CDDA (99%)
03 -=- 03 - Dindi.flac -=- CDDA (99%)
04 -=- 04 - Amargura.flac -=- CDDA (100%)
05 -=- 05 - Carinosa.flac -=- CDDA (99%)
06 -=- 06 - Tras La Puerta.flac -=- CDDA (100%)
07 -=- 07 - Fruta Buena.flac -=- CDDA (100%)
08 -=- 08 - Si No Estas.flac -=- CDDA (100%)
09 -=- 09 - Baile Del Desamor.flac -=- CDDA (100%)
10 -=- 10 - Soledad.flac -=- CDDA (100%)
11 -=- 11 - Rosa.flac -=- CDDA (100%)
12 -=- 12 - Labios Que Bese.flac -=- CDDA (100%)
13 -=- 13 - Y Machaco Mi Corazon.flac -=- CDDA (100%)
14 -=- 14 - Si Todos Fuesen Iguales ATi.flac -=- CDDA (100%)
15 -=- 15 - A Decir Adios.flac -=- CDDA (100%)
16 -=- 16 - Bachiana Numero 5.flac -=- CDDA (100%)

Summary 99,81% CDDA

Niño Josele: Flamenco Guitar
Estrella Morente: Vocals
Доп. информация: Estrella Morente (Эстрейа Моренте) родилась в городке Лос Габиас, провинции Гранада в 1981 году. Ее отец - известный певец и композитор Enrique Morente, мать - танцовщица фламенко Aurora Carbonell, дяди - Antonio Carbonell и Jose Carbonell, певец и гитарист соответственно. Она росла в атмосфере фламенко, окруженная артистами с самого раннего возраста. Estrella Morente была рождена, чтобы петь и это то, что ей нравится делать. Маэстро Энрике, ее отец, сильно повлиял на ее карьеру, она взяла очень много от его творчества, соединив его со старыми традициями фламенко. Помимо отца на нее повлияло творчество Niña de los Peines, которую Эстрейа считает лучшей певицей фламенко в истории.
Она участвует в концертах и записях своего отца, удивляя своим голосом и огромной индивидуальностью исполнения фламенко.

2001. Mi cante y un poema
2001. Calle del Aire
2006. Mujeres
2012. Autorretrato
2014. Amar En Paz (con la guitarra de Niño Josele)
2016. 15 Años con Estrella
 
Не забывайте говорить Спасибо. Не уходите с раздачи!   
Торрент: Зарегистрирован [21 апр 2017, 09:49] Для скачивания .torrent
необходима регистрация
Или скачать с помощью
MediaGet
Статус:
Проверен
 
.torrent скачан: 0 раз
Хэш: a92243a9a6d735124fd0655ab6f14c42cb5c78e0
Размер: 1.61 ГБ (1 728 182 030 байт)
Стать Автором раздачи
 
 
Раздал: 100 ГБ
Скачал: 0 байт
Ратио: Seed.
Сообщения: 103298
Зарегистрирован: 09 апр 2015, 23:00


  • Похожие торренты
    Ответы
    Просмотры
    Последнее сообщение

Вернуться в Фламенко и акустическая гитара (lossless)

Кто сейчас на конференции

Сейчас эту тему просматривают: нет зарегистрированных пользователей и гости: 1

Ресурс не предоставляет электронные версии произведений, а занимается лишь коллекционированием и каталогизацией ссылок, присылаемых и публикуемых на форуме нашими читателями. Если вы являетесь правообладателем какого-либо представленного материала и не желаете чтобы ссылка на него находилась в нашем каталоге, свяжитесь с нами и мы незамедлительно удалим её. Файлы для обмена на трекере предоставлены пользователями сайта, и администрация не несёт ответственности за их содержание. Просьба не заливать файлы, защищенные авторскими правами, а также файлы нелегального содержания!