Лучше звоните Солу / Better Call Saul / Сезон: 3 / Серии: 1-2 (10) (Адам Бернштейн, Лариса Кондрацки, Томас Шнауз) [2017, США, драма, криминал, WEB-DL, SD (480p)] 2xMVO (LostFilm.TV, Kravec Records) + Original + Sub (eng)

 
 Статистика раздачи 
Размер: 1.36 ГБ   |  Зарегистрирован: 21 апр 2017, 08:47   |   .torrent скачан: 0 раз
Сидеров: 1  [ 0 байт/сек ]     Личеров: 2  [ 0 байт/сек ]  
  

Лучше звоните Солу / Better Call Saul / Сезон: 3 / Серии: 1-2 (10) (Адам Бернштейн, Лариса Кондрацки, Томас Шнауз) [2017, США, драма, криминал, WEB-DL, SD (480p)] 2xMVO (LostFilm.TV, Kravec Records) + Original + Sub (eng)

Сообщение Lester » 21 апр 2017, 08:47

Лучше звоните Солу / Better Call Saul




Год выпуска: 2017
Страна: США
Жанр: драма, криминал
Продолжительность серии: 50 мин

Перевод: Профессиональный (многоголосый закадровый)
Оригинальная аудиодорожка: есть
Cубтитры: английские

Режиссёр: Адам Бернштейн, Лариса Кондрацки, Томас Шнауз
Сценарий: Винс Гиллиган, Питер Гулд, Томас Шнауз
Продюссер: Мелисса Бернштейн, Винс Гиллиган, Питер Гулд
Оператор: Артур Альберт
Композитор: Дэйв Портер
Художник: Тони Фаннинг, Паула Даль Санто, Дженнифер Л. Брайан
Монтаж: Келли Диксон, Скип Макдональд, Крис МакКалеб

В ролях: Боб Оденкерк (Джимми Макгил/Сол Гудман), Ри Сихорн (Ким Векслер), Патрик Фабиан (Говард Хэмлин), Майкл МакКин (Чак Макгил), Джонатан Бэнкс (Майк Эрмантраут), Майкл Мэндо (Начо Варга), Майкл Бофшевер (мистер Пинкман)

Описание:
Кем был и как жил знаменитый адвокат по уголовным делам Сол Гудман до встречи с легендарным Уолтером Уайтом? В сериале «Во все тяжкие" он умело ворочает миллионами долларов, полученными за производство наркотиков. А 6 лет назад только собирается открыть собственную адвокатскую контору в Альбукерке, выступает государственным защитником мелких хулиганов, снимает под офис техническое помещение маникюрного салона и не упускает ни одной возможности случайного и порой незаконного заработка. И получается у него это – очень смешно!

Спин-офф «Во все тяжкие» совершил большой подвиг, став достойным спутником своего беспредельно успешного оригинала. Это абсолютно самодостаточная история, снятая в своей собственной манере. Третий сезон криминальной комедии продолжает следовать по пути обращения Джимми МакГилла в Сола Гудмана – самого известного криминального адвоката Альбукерке. До знаменательной встречи с Уолтером Уайтом еще есть время. Адвокатская практика, да, и роман Джимми и Ким проходят испытания на прочность после незапланированного вмешательства брата Чака. Это окончательно сбивает и без того несовершенный моральный компас героя. Тем временем, Майк пытается разыскать таинственного врага, осведомленного обо всех тонкостях бизнеса. С развитием сюжета появляются новые персонажи и линии, которые должны привести нас во вселенную «Во все тяжкие».
Качество исходника: WEB-DL 480p
Качество: WEB-DL
Тип: 480p
Контейнер: m4v
Видео: 640 x 478 at 23.976 fps, MPEG-4 AVC, ~1500 kbps avg
Аудио: LostFilm.TV - Русский: MPEG-4 AAC LC, 2.0, ~ 128 kbps, 44100 Hz |Многоголосый закадровый, LostFilm.TV|
Аудио: Kravec Records - Русский: MPEG-4 AAC LC, 2.0, ~ 128 kbps, 44100 Hz |Многоголосый закадровый, Kravec Records|
Аудио: Английский (США): MPEG-4 AAC LC, 2.0, ~ 128 kbps, 44100 Hz
Субтитры: Английский (США): CEA-608 Closed Caption
Субтитры: Английский (США): TX3G SDH
Лучше звоните Солу, Сезон 3

Better Call Saul, Season 3
Jimmy helps Chuck regain his confidence, but Chuck makes clear to his brother that he hasn’t forgiven Jimmy for his trespasses. After discovering an ominous note, Mike obsesses over the identity of a mysterious stranger who has been surveilling him. Kim and Jimmy clash over the boundaries of their shared workspace.
Jimmy and Kim hire an assistant; Mike seeks out a mysterious acquaintance; and Chuck uses the law to gain an advantage over Jimmy.
Код:
Код: Выделить всё
Name: Mabel
Sort Name: Mabel
Artist: Better Call Saul
Sort Artist: Better Call Saul
Release Date: 2017-04-10T07:00:00Z
Album: Better Call Saul, Season 3
Sort Album: Better Call Saul, Season 3
Track: 1 of 0
Disk: 1 of 1
Genre: Drama
Part of Gapless Album: no
Cover Art pieces: 1
Album Artist: Better Call Saul
Copyright: © 2017 Sony Pictures Television Inc. All Rights Reserved.
Content Rating: None
Media Type: TV Show
TV Show: Better Call Saul
TV Network: AMC
TV Episode Number: 301
Short Description: Jimmy helps Chuck regain his confidence, but Chuck makes clear to his brother that he hasn’t
Long Description: Jimmy helps Chuck regain his confidence, but Chuck makes clear to his brother that he hasn’t forgiven Jimmy for his trespasses. After discovering an ominous note, Mike obsesses over the identity of a mysterious stranger who has been surveilling him. Kim and Jimmy clash over the boundaries of their shared workspace.
TV Episode: 1
TV Season: 3
Content ID: 1225284902
Artist ID: 941931469
Playlist ID: 1215454273
Genre ID: 4001
xid: sonypicturesentertainment:vendor_id:SONY_BETTER_CALL_SAUL_301_US
iTunes Store Country: United States

Код:
Код: Выделить всё
Общее
Полное имя                               : 01 Mabel.m4v
Формат                                   : MPEG-4
Идентификатор кодека                     : M4V
Размер файла                             : 696 Мбайт
Продолжительность                        : 51 м.
Режим общего битрейта                    : Переменный
Общий поток                              : 1873 Кбит/сек
Коллекция                                : Better Call Saul
Сезон                                    : 3
Альбом                                   : Better Call Saul, Season 3
Альбом/Сортировать по                    : Better Call Saul, Season 3
Альбом/Исполнитель                       : Better Call Saul
Часть                                    : 1
Трек                                     : Mabel
Трек/Положение                           : 1
Исполнитель                              : Better Call Saul
Исполнитель/Сортировать по               : Better Call Saul
Жанр                                     : Drama
Тип содержимого                          : TV Show
Описание                                 : Jimmy helps Chuck regain his confidence, but Chuck makes clear to his brother that he hasn’t
Дата записи                              : UTC 2017-04-10 07:00:00
Дата кодирования                         : UTC 2017-04-19 10:34:29
Дата пометки                             : UTC 2017-04-19 10:36:27
Правообладатель                          : © 2017 Sony Pictures Television Inc. All Rights Reserved.
Обложка                                  : Yes
Рейтинг                                  : None
TVNetworkName                            : AMC
Part_ID                                  : 0301
Title/Sort                               : Mabel
LongDescription                          : Jimmy helps Chuck regain his confidence, but Chuck makes clear to his brother that he hasn’t forgiven Jimmy for his trespasses. After discovering an ominous note, Mike obsesses over the identity of a mysterious stranger who has been surveilling him. Kim and Jimmy clash over the boundaries of their shared workspace.
AppleStoreCountry                        : United States
AppleStoreCatalogID                      : 1225284902
AlbumTitleID                             : 941931469
PlayListID                               : 1215454273
GenreID                                  : 4001
Vendor                                   : sonypicturesentertainment:vendor_id:SONY_BETTER_CALL_SAUL_0301_US
ContentRating                            : us-tv|TV-MA|600|

Видео
Идентификатор                            : 1
Формат                                   : AVC
Формат/Информация                        : Advanced Video Codec
Профиль формата                          : Baseline@L3.0
Параметр CABAC формата                   : Нет
Параметр ReFrames формата                : 1 кадр
Параметр GOP формата                     : M=1, N=90
Идентификатор кодека                     : avc1
Идентификатор кодека/Информация          : Advanced Video Coding
Продолжительность                        : 51 м.
Битрейт                                  : 1493 Кбит/сек
Максимальный битрейт                     : 8574 Кбит/сек
Ширина                                   : 640 пикселей
Высота                                   : 479 пикселей
Высота оригинала                         : 478 пикселей
Соотношение сторон                       : 16:9
Соотношение сторон в оригинале           : 16:9
Режим частоты кадров                     : Постоянный
Частота кадров                           : 23,976 кадра/сек
Цветовое пространство                    : YUV
Субдискретизация насыщенности            : 4:2:0
Битовая глубина                          : 8 бит
Тип развёртки                            : Прогрессивная
Бит/(Пиксели*Кадры)                      : 0.203
Размер потока                            : 555 Мбайт (80%)
Язык                                     : English
Дата кодирования                         : UTC 2017-04-19 10:34:30
Дата пометки                             : UTC 2017-04-19 10:34:51
Основные цвета                           : BT.601 NTSC
Характеристики трансфера                 : BT.709
Коэффициенты матрицы                     : BT.601

Аудио #1
Идентификатор                            : 2
Формат                                   : AAC
Формат/Информация                        : Advanced Audio Codec
Профиль формата                          : LC
Идентификатор кодека                     : 40
Продолжительность                        : 51 м.
Вид битрейта                             : Переменный
Битрейт                                  : 128 Кбит/сек
Максимальный битрейт                     : 140 Кбит/сек
Каналы                                   : 2 канала
Расположение каналов                     : Front: L R
Частота                                  : 44,1 КГц
Метод сжатия                             : С потерями
Размер потока                            : 47,5 Мбайт (7%)
Язык                                     : Russian
Дата кодирования                         : UTC 2017-04-19 10:34:29
Дата пометки                             : UTC 2017-04-19 10:34:51

Аудио #2
Идентификатор                            : 3
Формат                                   : AAC
Формат/Информация                        : Advanced Audio Codec
Профиль формата                          : LC
Идентификатор кодека                     : 40
Продолжительность                        : 51 м.
Вид битрейта                             : Переменный
Битрейт                                  : 128 Кбит/сек
Максимальный битрейт                     : 139 Кбит/сек
Каналы                                   : 2 канала
Расположение каналов                     : Front: L R
Частота                                  : 44,1 КГц
Метод сжатия                             : С потерями
Размер потока                            : 47,5 Мбайт (7%)
Язык                                     : Russian
Дата кодирования                         : UTC 2017-04-19 10:34:48
Дата пометки                             : UTC 2017-04-19 10:34:51

Аудио #3
Идентификатор                            : 4
Формат                                   : AAC
Формат/Информация                        : Advanced Audio Codec
Профиль формата                          : LC
Идентификатор кодека                     : 40
Продолжительность                        : 51 м.
Вид битрейта                             : Переменный
Битрейт                                  : 118 Кбит/сек
Максимальный битрейт                     : 199 Кбит/сек
Каналы                                   : 2 канала
Расположение каналов                     : Front: L R
Частота                                  : 44,1 КГц
Метод сжатия                             : С потерями
Размер потока                            : 43,8 Мбайт (6%)
Язык                                     : English
Дата кодирования                         : UTC 2017-04-19 10:34:49
Дата пометки                             : UTC 2017-04-19 10:34:51

Текст #1
Идентификатор                            : 5-CC1
Формат                                   : EIA-608
Режим смешивания                         : Final Cut
Идентификатор кодека                     : c608
Продолжительность                        : 51 м.
Вид битрейта                             : Постоянный
Размер потока                            : 0,00 байт (0%)
Язык                                     : English
Дата кодирования                         : UTC 2017-04-19 08:04:06
Дата пометки                             : UTC 2017-04-19 10:34:51

Текст #2
Идентификатор                            : 6
Формат                                   : Timed Text
Режим смешивания                         : sbtl
Идентификатор кодека                     : tx3g
Продолжительность                        : 51 м.
Вид битрейта                             : Переменный
Битрейт                                  : 61 бит/сек
Размер потока                            : 22,9 Кбайт (0%)
Язык                                     : English
Дата кодирования                         : UTC 2017-04-19 10:34:51
Дата пометки                             : UTC 2017-04-19 10:34:51



Релиз подготовлен для просмотра на Apple TV, iPad, iPhone, iPod Touch.
Для просмотра данного релиза на компьютере с ОС Windows рекомендуется использовать VLC media player
 
Не забывайте говорить Спасибо. Не уходите с раздачи!   
Торрент: Зарегистрирован [21 апр 2017, 08:47] Для скачивания .torrent
необходима регистрация
Или скачать с помощью
MediaGet
Статус:
Проверен
 
.torrent скачан: 0 раз
Хэш: ceb2737870495ab8b495ab09386e60d95e29abd2
Размер: 1.36 ГБ (1 457 815 503 байт)
Стать Автором раздачи
 
 
Раздал: 100 ГБ
Скачал: 0 байт
Ратио: Seed.
Сообщения: 103298
Зарегистрирован: 09 апр 2015, 23:00


  • Похожие торренты
    Ответы
    Просмотры
    Последнее сообщение

Вернуться в Сериалы для iPod, iPhone, iPad

Кто сейчас на конференции

Сейчас эту тему просматривают: нет зарегистрированных пользователей и гости: 1

Ресурс не предоставляет электронные версии произведений, а занимается лишь коллекционированием и каталогизацией ссылок, присылаемых и публикуемых на форуме нашими читателями. Если вы являетесь правообладателем какого-либо представленного материала и не желаете чтобы ссылка на него находилась в нашем каталоге, свяжитесь с нами и мы незамедлительно удалим её. Файлы для обмена на трекере предоставлены пользователями сайта, и администрация не несёт ответственности за их содержание. Просьба не заливать файлы, защищенные авторскими правами, а также файлы нелегального содержания!