(Classical zarzuela) Boccherini, Martin y Soler, de Nebra, Rodriguez de Hita - Arias de Zarzuela Barroca (Maria Bayo, Les Talens Lyriques, Christophe Rousset) - 2004, APE (image+.cue), lossless

 
 Статистика раздачи 
Размер: 334.62 МБ   |  Зарегистрирован: 20 апр 2017, 23:11   |   .torrent скачан: 0 раз
Сидеров: 3  [ 0 байт/сек ]     Личеров: 1  [ 0 байт/сек ]  
  

(Classical zarzuela) Boccherini, Martin y Soler, de Nebra, Rodriguez de Hita - Arias de Zarzuela Barroca (Maria Bayo, Les Talens Lyriques, Christophe Rousset) - 2004, APE (image+.cue), lossless

Сообщение Lester » 20 апр 2017, 23:11

Maria Bayo - Arias de Zarzuela Barroca / Les Talens Lyriques, Christophe Rousset

Жанр: Classical opera / zarzuela
Страна-производитель диска: Made in France
Год издания диска: 2004
Издатель (лейбл): Naïve / Astrée
Номер по каталогу: E8885
Дата записи: 2004
Аудиокодек: APE
Тип рипа: image
Битрейт аудио: lossless
Продолжительность: 70:15
Источник: релизер
сайт-источник/ник/другое: emule
Наличие сканов в содержимом раздачи: да
Код: Выделить всё
1. Para obsequio a la deidad nunca es culto la crueldad y Iphigenia en Tracia, opera Aria d'Orestes Llegar ninguno intente
Composed by Jose de Nebra

2. Para obsequio a la deidad nunca es culto la crueldad y Iphigenia en Tracia, opera Recitatif d'Iphigenia Suspéndete tirano
Composed by Jose de Nebra

3. Para obsequio a la deidad nunca es culto la crueldad y Iphigenia en Tracia, opera Aria Piedad, Señor
Composed by Jose de Nebra

4. La Madrileña, o Tutor burlado, zarzuela Ouverture
Composed by Vicente Martin y Soler

5. La Madrileña, o Tutor burlado, zarzuela Seguidilla de Violante Inocentita y niña
Composed by Vicente Martin y Soler

6. Amor aumenta el valor, Act 1, zarzuela Récitatif Triste cárcel oscura
Composed by Jose de Nebra

7. Amor aumenta el valor, Act 1, zarzuela Aria d'Horacio Ay! amor! Clelia mia
Composed by Jose de Nebra

8. La Briseida, opera Aria No. 4. Amor, sólo tu encanto
Composed by Antonio Rodriguez de Hita

9. La Clementina, zarzuela, G. 540 Ouverture
Composed by Luigi Boccherini

10. La Clementina, zarzuela, G. 540 Cavatina de Clementina Almas que amor sujetó
Composed by Luigi Boccherini

10. La Briseida, opera Aria No. 13. Deydad que las venganzas
Composed by Antonio Rodriguez de Hita

11. Amor aumenta el valor, Act 1, zarzuela Aria d'Horacio. Adiós, prenda de mi amor
Composed by Jose de Nebra

12. Para obsequio a la deidad nunca es culto la crueldad y Iphigenia en Tracia, opera Ouverture
Composed by Jose de Nebra

13. Amor aumenta el valor, Act 1, zarzuela Aria de Porsena. Más fácil será al viento
Composed by Jose de Nebra
Код: Выделить всё
José de Nebra
01. Iphigenia en Tracia, zarzuela (Aria d'Orestes Llegar ninguno intente)
02. Iphigenia en Tracia, zarzuela (Recitatif d'Iphigenia Suspéndete tirano)
03. Iphigenia en Tracia, zarzuela (Aria Piedad, Señor)

Vicente Martin y Soler
04. La Madrileña, o Tutor burlado, zarzuela (Ouverture)
05. La Madrileña, o Tutor burlado, zarzuela (Seguidilla de Violante Inocentita y niña)

José de Nebra
06. Amor aumenta el valor, zarzuela (Récitatif Triste cárcel oscura)
07. Amor aumenta el valor, zarzuela (Aria d'Horacio Ay! amor! Clelia mia)

Antonio Rodríguez de Hita
08. La Briseida, opera (Aria No. 4. Amor, sólo tu encanto)

Luigi Boccherini
09. La Clementina, zarzuela, G. 540 (Ouverture)
10. La Clementina, zarzuela, G. 540 (Cavatina de Clementina Almas que amor sujetó)

Antonio Rodríguez de Hita
11. La Briseida, opera (Aria No. 13. Deydad que las venganzas)

José de Nebra
12. Amor aumenta el valor, zarzuela (Aria d'Horacio. Adiós, prenda de mi amor)
13. Iphigenia en Tracia, zarzuela (Ouverture)
14. Amor aumenta el valor, zarzuela (Aria de Porsena. Más fácil será al viento)
Код: Выделить всё
[b]Arias de Zarzuela Barroca[/b]

Composers:
Luigi Boccherini, Vicente Martin y Soler, Jose de Nebra, Antonio Rodriguez de Hita

Maria Bayo, soprano

[i]Les Talens Lyriques[/i]
Conductor: Christophe Rousset
Код: Выделить всё
EAC extraction logfile from 26. June 2007, 23:26 for CD
Various / Arias de Zarzuela barroca

Used drive  : LG      DVD-ROM DRD8160B   Adapter: 1  ID: 1
Read mode   : Secure with NO C2, accurate stream, disable cache
Read offset correction : 594
Overread into Lead-In and Lead-Out : No

Used output format : C:\Archivos de programa\Monkey's Audio\MAC.exe   (Monkey's Audio Lossless Encoder)
                     Normal Lossless Compression

Other options      :
    Fill up missing offset samples with silence : Yes
    Delete leading and trailing silent blocks : No
    Installed external ASPI interface

Range status and errors
Selected range
     Filename C:\Zarzuela\CDImage.wav

     Peak level 99.3 %
     Range quality 100.0 %
     CRC 421CF93E
     Copy OK

No errors occured

End of status report
Код: Выделить всё
REM GENRE "Pre-classical & Classical (1759-1800)"
REM DATE 2003
REM DISCID BD10770E
REM COMMENT "ExactAudioCopy v0.95b4"
PERFORMER "Various"
TITLE "Arias de Zarzuela barroca"
FILE "Arias de Zarzuela Barroca.ape" WAVE
  TRACK 01 AUDIO
    TITLE "Para obsequio a la deydad, nunca es culto la crueldad, y Iphigenia en Tracia:..."
    PERFORMER "Nebra Blasco, José Melchor de (1702-1768)"
    INDEX 01 00:00:00
  TRACK 02 AUDIO
    TITLE "2. Récitatif d'Iphigenia: Suspéndete tirano"
    PERFORMER "Nebra Blasco, José Melchor de (1702-1768)"
    INDEX 00 06:33:29
    INDEX 01 06:39:13
  TRACK 03 AUDIO
    TITLE "3. Aria: Piedad, Senor"
    PERFORMER "Nebra Blasco, José Melchor de (1702-1768)"
    INDEX 01 07:46:43
  TRACK 04 AUDIO
    TITLE "La Madrileña o el tutor burlado: 1. Ouverture"
    PERFORMER "Soler, Vincente Martнn y Soler (1754-1806)"
    INDEX 00 14:10:59
    INDEX 01 14:18:03
  TRACK 05 AUDIO
    TITLE "2. Seguidilla de Violante: Inocentita y nina"
    PERFORMER "Soler, Vincente Martнn y Soler (1754-1806)"
    INDEX 00 17:45:53
    INDEX 01 17:48:06
  TRACK 06 AUDIO
    TITLE "Amor aumenta e Valor: 1. Récitatif: Triste Cárcel Oscura"
    PERFORMER "Nebra Blasco, José Melchor de (1702-1768)"
    INDEX 00 19:38:33
    INDEX 01 19:45:26
  TRACK 07 AUDIO
    TITLE "2. Aria d'Horacio: Ay! amor! Clelia mia"
    PERFORMER "Nebra Blasco, José Melchor de (1702-1768)"
    INDEX 01 20:44:74
  TRACK 08 AUDIO
    TITLE "La Briseida: Aria No. 4: Amor, sólo tu encanto"
    PERFORMER "Hita, Antonio Rodriguez de (1722-1787)"
    INDEX 00 30:22:04
    INDEX 01 30:28:62
  TRACK 09 AUDIO
    TITLE "Clementina: 1. Ouverture"
    PERFORMER "Boccherini, Luigi (1743-1805)"
    INDEX 00 37:45:45
    INDEX 01 37:53:71
  TRACK 10 AUDIO
    TITLE "2. Cavatina de Clementina: Almas que amor sujetó"
    PERFORMER "Boccherini, Luigi (1743-1805)"
    INDEX 00 44:05:69
    INDEX 01 44:10:61
  TRACK 11 AUDIO
    TITLE "La Briseida: Aria no. 13: Deydad que las Venganzas"
    PERFORMER "Hita, Antonio Rodriguez de (1722-1787)"
    INDEX 00 47:06:69
    INDEX 01 47:14:01
  TRACK 12 AUDIO
    TITLE "Amor aumenta el Valor: Aria d'Horacio: Adiós, prenda de mi Amor"
    PERFORMER "Nebra Blasco, José Melchor de (1702-1768)"
    INDEX 00 51:53:67
    INDEX 01 52:02:30
  TRACK 13 AUDIO
    TITLE "Para Obsequio a la Deyda: Ouverture"
    PERFORMER "Nebra Blasco, José Melchor de (1702-1768)"
    INDEX 00 61:23:13
    INDEX 01 61:30:15
  TRACK 14 AUDIO
    TITLE "Amor aumenta el Valor: Aria de Porsena: Más fácil será al viento"
    PERFORMER "Nebra Blasco, José Melchor de (1702-1768)"
    INDEX 00 66:10:35
    INDEX 01 66:18:07
 
Не забывайте говорить Спасибо. Не уходите с раздачи!   
Торрент: Зарегистрирован [20 апр 2017, 23:11] Для скачивания .torrent
необходима регистрация
Или скачать с помощью
MediaGet
Статус:
Проверен
 
.torrent скачан: 0 раз
Хэш: e286d79f1a096f97772aeb5ffbd6d2191273fc5a
Размер: 334.62 МБ (350 873 629 байт)
Стать Автором раздачи
 
 
Раздал: 100 ГБ
Скачал: 0 байт
Ратио: Seed.
Сообщения: 103530
Зарегистрирован: 09 апр 2015, 23:00


  • Похожие торренты
    Ответы
    Просмотры
    Последнее сообщение

Вернуться в Вокальная музыка (lossless)

Кто сейчас на конференции

Сейчас эту тему просматривают: нет зарегистрированных пользователей и гости: 1

Ресурс не предоставляет электронные версии произведений, а занимается лишь коллекционированием и каталогизацией ссылок, присылаемых и публикуемых на форуме нашими читателями. Если вы являетесь правообладателем какого-либо представленного материала и не желаете чтобы ссылка на него находилась в нашем каталоге, свяжитесь с нами и мы незамедлительно удалим её. Файлы для обмена на трекере предоставлены пользователями сайта, и администрация не несёт ответственности за их содержание. Просьба не заливать файлы, защищенные авторскими правами, а также файлы нелегального содержания!