(Chanson, Pop) [CD] Jean-Francois Maurice - Monaco-28° à l'ombre - 1991, FLAC (image+.cue), lossless

 
 Статистика раздачи 
Размер: 181.76 МБ   |  Зарегистрирован: 20 апр 2017, 16:42   |   .torrent скачан: 0 раз
Сидеров: 3  [ 0 байт/сек ]     Личеров: 1  [ 0 байт/сек ]  
  

(Chanson, Pop) [CD] Jean-Francois Maurice - Monaco-28° à l'ombre - 1991, FLAC (image+.cue), lossless

Сообщение Lester » 20 апр 2017, 16:42

Jean-Francois Maurice / Monaco-28° à l'ombre

Жанр: Chanson, Pop
Носитель: CD
Страна-производитель диска (релиза): Korea
Год издания: 1991
Издатель (лейбл): Hansori
Номер по каталогу: HSD-8070
Аудиокодек: FLAC (*.flac)
Тип рипа: image+.cue
Битрейт аудио: lossless
Продолжительность: 00:29:41
Источник (релизер): Own CD & Rip
Наличие сканов в содержимом раздачи: да
Треклист:
01. Monaco-28° à l'ombre (3:45)
02. Pas De Slow Pour Moi (3:40)
03. La Mia California (4:24)
04. Margherita (2:52)
05. Ancora (3:38)
06. Insieme (4:06)
07. Vado Via (3:46)
08. Preghero (2:48)
Код: Выделить всё
Exact Audio Copy V1.3 from 2. September 2016

EAC extraction logfile from 19. April 2017, 11:58

Jean-François Maurice / Monaco-28° à l'ombre

Used drive  : HL-DT-STDVDRAM GH24NSB0   Adapter: 1  ID: 1

Read mode               : Secure
Utilize accurate stream : Yes
Defeat audio cache      : Yes
Make use of C2 pointers : No

Read offset correction                      : 6
Overread into Lead-In and Lead-Out          : No
Fill up missing offset samples with silence : Yes
Delete leading and trailing silent blocks   : No
Null samples used in CRC calculations       : Yes
Used interface                              : Native Win32 interface for Win NT & 2000

Used output format              : User Defined Encoder
Selected bitrate                : 1024 kBit/s
Quality                         : High
Add ID3 tag                     : No
Command line compressor         : C:\Program Files (x86)\Exact Audio Copy\Flac\flac.exe
Additional command line options : -V -6 %source% -o %dest%

TOC of the extracted CD

     Track |   Start  |  Length  | Start sector | End sector
    ---------------------------------------------------------
        1  |  0:00.00 |  3:55.13 |         0    |    17637
        2  |  3:55.13 |  3:45.15 |     17638    |    34527
        3  |  7:40.28 |  4:27.60 |     34528    |    54612
        4  | 12:08.13 |  2:57.30 |     54613    |    67917
        5  | 15:05.43 |  3:43.00 |     67918    |    84642
        6  | 18:48.43 |  4:12.60 |     84643    |   103602
        7  | 23:01.28 |  3:52.25 |    103603    |   121027
        8  | 26:53.53 |  2:48.17 |    121028    |   133644

Range status and errors

Selected range

     Filename D:\WORKING\Jean-François Maurice - Monaco-28° à l'ombre.wav

     Peak level 100.0 %
     Extraction speed 6.0 X
     Range quality 100.0 %
     Test CRC 1FC322F7
     Copy CRC 1FC322F7
     Copy OK

No errors occurred

AccurateRip summary

Track  1  not present in database
Track  2  not present in database
Track  3  not present in database
Track  4  not present in database
Track  5  not present in database
Track  6  not present in database
Track  7  not present in database
Track  8  not present in database

None of the tracks are present in the AccurateRip database

End of status report

---- CUETools DB Plugin V2.1.6

[CTDB TOCID: PuF595ObhSGXj9ULXUJ2ZlX1e2Y-] found
Submit result: PuF595ObhSGXj9ULXUJ2ZlX1e2Y- has been uploaded
Track | CTDB Status
  1   | (0/1) No match
  2   | (0/1) No match
  3   | (0/1) No match
  4   | (0/1) No match
  5   | (0/1) No match
  6   | (0/1) No match
  7   | (0/1) No match
  8   | (0/1) No match

==== Log checksum 26314AEF6751C3B6833B9094E582C67411FDF9C540E1FCBB592EA31F77D07B02 ====
 
Не забывайте говорить Спасибо. Не уходите с раздачи!   
Торрент: Зарегистрирован [20 апр 2017, 16:42] Для скачивания .torrent
необходима регистрация
Или скачать с помощью
MediaGet
Статус:
Проверен
 
.torrent скачан: 0 раз
Хэш: ea53f5deb1e83f4137759c32d7dfa4f22aa6a7b7
Размер: 181.76 МБ (190 584 014 байт)
Стать Автором раздачи
 
 
Раздал: 100 ГБ
Скачал: 0 байт
Ратио: Seed.
Сообщения: 103298
Зарегистрирован: 09 апр 2015, 23:00


  • Похожие торренты
    Ответы
    Просмотры
    Последнее сообщение

Вернуться в Зарубежный шансон (lossless)

Кто сейчас на конференции

Сейчас эту тему просматривают: нет зарегистрированных пользователей и гости: 1

Ресурс не предоставляет электронные версии произведений, а занимается лишь коллекционированием и каталогизацией ссылок, присылаемых и публикуемых на форуме нашими читателями. Если вы являетесь правообладателем какого-либо представленного материала и не желаете чтобы ссылка на него находилась в нашем каталоге, свяжитесь с нами и мы незамедлительно удалим её. Файлы для обмена на трекере предоставлены пользователями сайта, и администрация не несёт ответственности за их содержание. Просьба не заливать файлы, защищенные авторскими правами, а также файлы нелегального содержания!