Мир слепых / The World of Blind (Валя Карнавалова) [2016, Россия, авторская анимация, WEBRip]

 
 Статистика раздачи 
Размер: 99.74 МБ   |  Зарегистрирован: 20 апр 2017, 15:56   |   .torrent скачан: 0 раз
Сидеров: 3  [ 0 байт/сек ]     Личеров: 1  [ 0 байт/сек ]  
  

Мир слепых / The World of Blind (Валя Карнавалова) [2016, Россия, авторская анимация, WEBRip]

Сообщение Lester » 20 апр 2017, 15:56

Мир слепых / The World of Blind

Страна: Россия
Жанр: авторская анимация
Год выпуска: 2016
Продолжительность: 00:06:16
Перевод: не требуется
Cубтитры: нет

Режиссёр: Валя Карнавалова

Описание: Будни обитателей Мира Слепых. Которые потом неожиданно получают зрение...

Качество видео: WEB-DLRip
Формат видео: AVI

Видео: 2016 kbps, 720х400 (16:9), 25.000 fps, MPEG-4 Visual (XviD)
Аудио: 192 kbps, 44.1 kHz, 2 channels, MPEG Audio (MP3)
General
Complete name : Мир слепых (2016).avi
Format : AVI
Format/Info : Audio Video Interleave
File size : 99.7 MiB
Duration : 6mn 16s
Overall bit rate : 2 221 Kbps
Writing application : MEncoder SVN-r30881(20100311-gcc4.3.3)
Writing library : MPlayer

Video
ID : 0
Format : MPEG-4 Visual
Format profile : Advanced Simple@L5
Format settings, BVOP : 2
Format settings, QPel : No
Format settings, GMC : No warppoints
Format settings, Matrix : Default (H.263)
Codec ID : XVID
Codec ID/Hint : XviD
Duration : 6mn 16s
Bit rate : 2 016 Kbps
Width : 720 pixels
Height : 400 pixels
Display aspect ratio : 16:9
Original display aspect ratio : 16:9
Frame rate : 25.000 fps
Color space : YUV
Chroma subsampling : 4:2:0
Bit depth : 8 bits
Scan type : Progressive
Compression mode : Lossy
Bits/(Pixel*Frame) : 0.280
Stream size : 90.5 MiB (91%)
Writing library : XviD 1.2.1 (UTC 2008-12-04)

Audio
ID : 1
Format : MPEG Audio
Format version : Version 1
Format profile : Layer 3
Mode : Joint stereo
Mode extension : MS Stereo
Codec ID : 55
Codec ID/Hint : MP3
Duration : 6mn 16s
Bit rate mode : Constant
Bit rate : 192 Kbps
Channel(s) : 2 channels
Sampling rate : 44.1 KHz
Compression mode : Lossy
Delay relative to video : 40ms
Stream size : 8.62 MiB (9%)
Alignment : Aligned on interleaves
Interleave, duration : 26 ms (0.65 video frame)
Interleave, preload duration : 522 ms
Writing library : LAME3.98
 
Не забывайте говорить Спасибо. Не уходите с раздачи!   
Торрент: Зарегистрирован [20 апр 2017, 15:56] Для скачивания .torrent
необходима регистрация
Или скачать с помощью
MediaGet
Статус:
Проверен
 
.torrent скачан: 0 раз
Хэш: feb695132adc49139a0e51948c50e324dc01aaa4
Размер: 99.74 МБ (104 585 728 байт)
Стать Автором раздачи
 
 
Раздал: 100 ГБ
Скачал: 0 байт
Ратио: Seed.
Сообщения: 103569
Зарегистрирован: 09 апр 2015, 23:00


  • Похожие торренты
    Ответы
    Просмотры
    Последнее сообщение

Вернуться в Арт-хаус и авторское кино

Ресурс не предоставляет электронные версии произведений, а занимается лишь коллекционированием и каталогизацией ссылок, присылаемых и публикуемых на форуме нашими читателями. Если вы являетесь правообладателем какого-либо представленного материала и не желаете чтобы ссылка на него находилась в нашем каталоге, свяжитесь с нами и мы незамедлительно удалим её. Файлы для обмена на трекере предоставлены пользователями сайта, и администрация не несёт ответственности за их содержание. Просьба не заливать файлы, защищенные авторскими правами, а также файлы нелегального содержания!
cron