Схождение Благодатного Огня (НТВ)(15.04.2017)[2017, документальный, IPTV, AVC]

 
 Статистика раздачи 
Размер: 1.26 ГБ   |  Зарегистрирован: 18 апр 2017, 19:28   |   .torrent скачан: 0 раз
Сидеров: 2  [ 0 байт/сек ]     Личеров: 1  [ 0 байт/сек ]  
  

Схождение Благодатного Огня (НТВ)(15.04.2017)[2017, документальный, IPTV, AVC]

Сообщение Lester » 18 апр 2017, 19:28

Схождение Благодатного Огня (НТВ)(15.04.2017)[2017 год , документальный , IPTV, AVC]

Дата/Год выпуска: 15.04.2017
Страна: Россия
Жанр: Прямая трансляция
Продолжительность: 01:15:30
Перевод: Не требуется
Телеканал: HTB

Описание: Раз в год, в канун православной Пасхи, в Великую субботу, почти две тысячи лет в Иерусалиме сходит Благодатный огонь. Посмотреть на это чудо собираются тысячи верующих со всего мира. Благодатный огонь считается символом благословения Божия роду человеческому. Он разносится паломниками по всему православному миру. Из Иерусалима Благодатный огонь специальным авиарейсом будет доставлен в Москву к началу пасхального богослужения в храме Христа Спасителя, возглавляемого патриархом Московским и всея Руси Кириллом.

качество: IPTVRip
формат: MP4
Видео: 2252 Кбит/сек, 720*570 (16:9), в 50,000 кадров/сек, AVC ([email protected]) (CABAC / 4 Ref Frames)
Аудио: Russian, 128 Кбит/сек, 48,0 КГц, 2 канала, AAC (LC)
Код: Выделить всё
Общее
Полное имя                               : Схождение Благодатного Огня 15.04.2017.mp4
Формат                                   : MPEG-4
Профиль формата                          : Base Media
Идентификатор кодека                     : isom (isom/iso2/avc1/mp41)
Размер файла                             : 1,26 Гбайт
Продолжительность                        : 1 ч. 15 м.
Общий поток                              : 2390 Кбит/сек
Программа кодирования                    : XviD4PSP 7.0.376 DAILY
encoding_info                            : MPEGTS > MP4 Apple 1080p / H264 > X264 CRF 21.0 HQ / MP2 > AAC CBR 128kbps LC

Видео
Идентификатор                            : 1
Формат                                   : AVC
Формат/Информация                        : Advanced Video Codec
Профиль формата                          : [email protected]
Параметр CABAC формата                   : Да
Параметр ReFrames формата                : 4 кадра
Идентификатор кодека                     : avc1
Идентификатор кодека/Информация          : Advanced Video Coding
Продолжительность                        : 1 ч. 15 м.
Битрейт                                  : 2252 Кбит/сек
Ширина                                   : 720 пикселей
Высота                                   : 570 пикселей
Соотношение сторон                       : 16:9
Соотношение сторон в оригинале           : 16:9
Режим частоты кадров                     : Постоянный
Частота кадров                           : 50,000 кадров/сек
Цветовое пространство                    : YUV
Субдискретизация насыщенности            : 4:2:0
Битовая глубина                          : 8 бит
Тип развёртки                            : Прогрессивная
Бит/(Пиксели*Кадры)                      : 0.110
Размер потока                            : 1,19 Гбайт (94%)
Библиотека кодирования                   : x264 core 148 r2762M 90a61ec
Настройки программы                      : cabac=1 / ref=3 / deblock=1:-1:-1 / analyse=0x3:0x133 / me=hex / subme=7 / psy=1 / psy_rd=1.00:0.15 / mixed_ref=1 / me_range=16 / chroma_me=1 / trellis=1 / 8x8dct=1 / cqm=0 / deadzone=21,11 / fast_pskip=1 / chroma_qp_offset=-3 / threads=5 / lookahead_threads=1 / sliced_threads=0 / nr=0 / decimate=1 / interlaced=0 / bluray_compat=0 / constrained_intra=0 / bframes=3 / b_pyramid=2 / b_adapt=2 / b_bias=0 / direct=3 / weightb=1 / open_gop=0 / weightp=2 / keyint=500 / keyint_min=50 / scenecut=40 / intra_refresh=0 / rc_lookahead=40 / rc=crf / mbtree=1 / crf=21.0 / qcomp=0.60 / qpmin=0 / qpmax=69 / qpstep=4 / vbv_maxrate=40000 / vbv_bufsize=30000 / crf_max=30.0 / nal_hrd=none / filler=0 / ip_ratio=1.40 / aq=1:1.00
Цветовой диапазон                        : Limited
Основные цвета                           : BT.601 PAL
Характеристики трансфера                 : BT.470 System B, BT.470 System G
Коэффициенты матрицы                     : BT.601

Аудио
Идентификатор                            : 2
Формат                                   : AAC
Формат/Информация                        : Advanced Audio Codec
Профиль формата                          : LC
Идентификатор кодека                     : 40
Продолжительность                        : 1 ч. 15 м.
Duration_LastFrame                       : -16 мс.
Вид битрейта                             : Постоянный
Битрейт                                  : 128 Кбит/сек
Каналы                                   : 2 канала
Расположение каналов                     : Front: L R
Частота                                  : 48,0 КГц
Частота кадров                           : 46,875 кадров/сек (1024 spf)
Метод сжатия                             : С потерями
Размер потока                            : 69,1 Мбайт (5%)
Язык                                     : Russian
Default                                  : Да
Alternate group                          : 1
 
Не забывайте говорить Спасибо. Не уходите с раздачи!   
Торрент: Зарегистрирован [18 апр 2017, 19:28] Для скачивания .torrent
необходима регистрация
Или скачать с помощью
MediaGet
Статус:
Проверен
 
.torrent скачан: 0 раз
Хэш: 0b0b9de6b7aa5be5c93fa05a8e0f1dda32ff27cc
Размер: 1.26 ГБ (1 353 143 948 байт)
Стать Автором раздачи
 
 
Раздал: 100 ГБ
Скачал: 0 байт
Ратио: Seed.
Сообщения: 90516
Зарегистрирован: 09 апр 2015, 23:00


  • Похожие торренты
    Ответы
    Просмотры
    Последнее сообщение

Вернуться в Вера и религия (видео)

Кто сейчас на конференции

Сейчас эту тему просматривают: нет зарегистрированных пользователей и гости: 1

Ресурс не предоставляет электронные версии произведений, а занимается лишь коллекционированием и каталогизацией ссылок, присылаемых и публикуемых на форуме нашими читателями. Если вы являетесь правообладателем какого-либо представленного материала и не желаете чтобы ссылка на него находилась в нашем каталоге, свяжитесь с нами и мы незамедлительно удалим её. Файлы для обмена на трекере предоставлены пользователями сайта, и администрация не несёт ответственности за их содержание. Просьба не заливать файлы, защищенные авторскими правами, а также файлы нелегального содержания!