DALI - The DALI CD Volume 4 - In Admiration of Music (2015) (tracks + .cue) FLAC

 
 Статистика раздачи 
Размер: 754.5 МБ   |  Зарегистрирован: 17 апр 2017, 10:45   |   .torrent скачан: 2 раз
Сидеров: 25  [ 0 байт/сек ]     Личеров: 8  [ 0 байт/сек ]  
  

DALI - The DALI CD Volume 4 - In Admiration of Music (2015) (tracks + .cue) FLAC

Сообщение Lester » 17 апр 2017, 10:45

The DALI CD Volume 4 - In Admiration of Music (2015)

Постер:
Производитель: DALI
Сайт производителя: http://www.dali-speakers.com/music/the-dali-cds/dali-cd-vol-4/
Год выпуска: 2015
Язык: Английский
Тип рипа: tracks + .cue
Аудио кодек: FLAC
Аудио: 44.1 kHz, 16bit, stereo
Описание: Промо-диск известной датской фирмы DALI - производителя акустических систем.
AUDIOCHECKER v2.0 beta (build 457) - by Dester - opdester@freemail.hu
~~~~~~~~~~~~~~~~~~~~~~~~~~~~~~~~~~
-=== DO NOT EDIT THIS FILE! ===-

Path: ...\The Dali Vol.04 (2015)

01 -=- 01 - Eva Cassidy - Ain't No Sunshine.wav -=- CDDA (99%)
02 -=- 02 - Tom Jones - Did Trouble Me.wav -=- CDDA (100%)
03 -=- 03 - Eivшr - Min Mуdir.wav -=- CDDA (100%)
04 -=- 04 - Michael Penn - Coal.wav -=- CDDA (100%)
05 -=- 05 - Jacques Loussier - Sicliano In G Minor.wav -=- CDDA (100%)
06 -=- 06 - Vestbo Trio - Mudslide.wav -=- CDDA (100%)
07 -=- 07 - Mъsica Temprana - Misa Criolla.wav -=- CDDA (100%)
08 -=- 08 - Zemtsov Viola Quartet - Verano Porteno.wav -=- MPEG (89%)
09 -=- 09 - Hans Zimmer - Wheel Of Fortune.wav -=- CDDA (100%)
10 -=- 10 - James Blood Ulmer Live Experience - Crying.wav -=- CDDA (99%)
11 -=- 11 - He Xiu Tan - Earth Drums.wav -=- CDDA (100%)
12 -=- 12 - Laurie Anderson - My Right Eye.wav -=- CDDA (99%)
13 -=- 13 - Boubacar Traorй - Bougoudani.wav -=- CDDA (100%)
14 -=- 14 - Infected Mushroom - Deeply Disturbed.wav -=- CDDA (100%)
15 -=- 15 - Lucas Graham - Happy Home.wav -=- CDDA (100%)

Summary 93.87% CDDA

39729524

dBpoweramp Release 16.1 Digital Audio Extraction Log from Tuesday, January 24, 2017 22:04

Drive & Settings
----------------

Ripping with drive 'H: [MATSHITA - BD-MLT UJ260AF ]', Drive offset: 103, Overread Lead-in/out: No
AccurateRip: Active, Using C2: No, Cache: 1024 KB, FUA Cache Invalidate: No
Pass 1 Drive Speed: Max, Pass 2 Drive Speed: Max
Ultra:: Vary Drive Speed: Yes, Min Passes: 3, Max Passes: 6, Finish After Clean Passes: 2
Bad Sector Re-rip:: Drive Speed: Max, Maximum Re-reads: 34

Encoder: Wave -compression="PCM"

Extraction Log
--------------

Track 1: Ripped LBA 0 to 15530 (3:27) in 0:26. Filename: D:\New-Rip\The Dali CD\The Dali CD, Vol 4\01 Eva Cassidy - Ain't No Sunshine._
AccurateRip: Accurate (confidence 36) [Pass 1]
CRC32: 24E2A61A AccurateRip CRC: 5EAE8013 (CRCv2) [DiscID: 015-002561bd-01b35c2d-fb11820f-1]
AccurateRip Verified Confidence 36 [CRCv2 5eae8013]
AccurateRip Verified Confidence 3 [CRCv1 d60eb3d9]

Track 2: Ripped LBA 15530 to 34893 (4:18) in 0:24. Filename: D:\New-Rip\The Dali CD\The Dali CD, Vol 4\02 Tom Jones - Did Trouble Me._
AccurateRip: Accurate (confidence 36) [Pass 1]
CRC32: 09EA5456 AccurateRip CRC: 4A7457C0 (CRCv2) [DiscID: 015-002561bd-01b35c2d-fb11820f-2]
AccurateRip Verified Confidence 36 [CRCv2 4a7457c0]
AccurateRip Verified Confidence 2 [CRCv1 d23d7c79]

Track 3: Ripped LBA 34893 to 55630 (4:36) in 0:24. Filename: D:\New-Rip\The Dali CD\The Dali CD, Vol 4\03 Eivør - Min Módir._
AccurateRip: Accurate (confidence 36) [Pass 1]
CRC32: 71278E10 AccurateRip CRC: E490AFC3 (CRCv2) [DiscID: 015-002561bd-01b35c2d-fb11820f-3]
AccurateRip Verified Confidence 36 [CRCv2 e490afc3]
AccurateRip Verified Confidence 2 [CRCv1 c9054111]

Track 4: Ripped LBA 55630 to 71828 (3:35) in 0:17. Filename: D:\New-Rip\The Dali CD\The Dali CD, Vol 4\04 Michael Penn - Coal._
AccurateRip: Accurate (confidence 36) [Pass 1]
CRC32: F5E5562B AccurateRip CRC: 234E2589 (CRCv2) [DiscID: 015-002561bd-01b35c2d-fb11820f-4]
AccurateRip Verified Confidence 36 [CRCv2 234e2589]
AccurateRip Verified Confidence 2 [CRCv1 d4e63ef]

Track 5: Ripped LBA 71828 to 88113 (3:37) in 0:16. Filename: D:\New-Rip\The Dali CD\The Dali CD, Vol 4\05 Jacques Loussier - Sicliano In G Minor._
AccurateRip: Accurate (confidence 36) [Pass 1]
CRC32: A5A9BE54 AccurateRip CRC: 3EC708DE (CRCv2) [DiscID: 015-002561bd-01b35c2d-fb11820f-5]
AccurateRip Verified Confidence 36 [CRCv2 3ec708de]
AccurateRip Verified Confidence 2 [CRCv1 72dfa7fb]

Track 6: Ripped LBA 88113 to 108450 (4:31) in 0:19. Filename: D:\New-Rip\The Dali CD\The Dali CD, Vol 4\06 Vestbo Trio - Mudslide._
AccurateRip: Accurate (confidence 36) [Pass 1]
CRC32: 9B0DB06D AccurateRip CRC: 2441ACA0 (CRCv2) [DiscID: 015-002561bd-01b35c2d-fb11820f-6]
AccurateRip Verified Confidence 36 [CRCv2 2441aca0]
AccurateRip Verified Confidence 2 [CRCv1 90b4d196]

Track 7: Ripped LBA 108450 to 125074 (3:41) in 0:15. Filename: D:\New-Rip\The Dali CD\The Dali CD, Vol 4\07 Música Temprana - Misa Criolla._
AccurateRip: Accurate (confidence 36) [Pass 1]
CRC32: F73B89AA AccurateRip CRC: ADC2278B (CRCv2) [DiscID: 015-002561bd-01b35c2d-fb11820f-7]
AccurateRip Verified Confidence 36 [CRCv2 adc2278b]
AccurateRip Verified Confidence 2 [CRCv1 84b663e5]

Track 8: Ripped LBA 125074 to 145683 (4:34) in 0:18. Filename: D:\New-Rip\The Dali CD\The Dali CD, Vol 4\08 Zemtsov Viola Quartet - Verano Porteno._
AccurateRip: Accurate (confidence 36) [Pass 1]
CRC32: 85D12AEC AccurateRip CRC: D9055EDC (CRCv2) [DiscID: 015-002561bd-01b35c2d-fb11820f-8]
AccurateRip Verified Confidence 36 [CRCv2 d9055edc]
AccurateRip Verified Confidence 2 [CRCv1 d1dff4c3]

Track 9: Ripped LBA 145683 to 176224 (6:47) in 0:25. Filename: D:\New-Rip\The Dali CD\The Dali CD, Vol 4\09 Hans Zimmer - Wheel Of Fortune._
AccurateRip: Accurate (confidence 36) [Pass 1]
CRC32: AA2A9D10 AccurateRip CRC: 816A79DF (CRCv2) [DiscID: 015-002561bd-01b35c2d-fb11820f-9]
AccurateRip Verified Confidence 36 [CRCv2 816a79df]
AccurateRip Verified Confidence 2 [CRCv1 88a82086]

Track 10: Ripped LBA 176224 to 208290 (7:07) in 0:25. Filename: D:\New-Rip\The Dali CD\The Dali CD, Vol 4\10 James Blood Ulmer Live Experience - Crying._
AccurateRip: Accurate (confidence 36) [Pass 1]
CRC32: 30B9A349 AccurateRip CRC: 6D51ED87 (CRCv2) [DiscID: 015-002561bd-01b35c2d-fb11820f-10]
AccurateRip Verified Confidence 36 [CRCv2 6d51ed87]
AccurateRip Verified Confidence 2 [CRCv1 1776d8ff]

Track 11: Ripped LBA 208290 to 230006 (4:49) in 0:16. Filename: D:\New-Rip\The Dali CD\The Dali CD, Vol 4\11 He Xiu Tan - Earth Drums._
AccurateRip: Accurate (confidence 36) [Pass 1]
CRC32: 1734FD88 AccurateRip CRC: DA9F40A3 (CRCv2) [DiscID: 015-002561bd-01b35c2d-fb11820f-11]
AccurateRip Verified Confidence 36 [CRCv2 da9f40a3]
AccurateRip Verified Confidence 3 [CRCv1 48e17645]

Track 12: Ripped LBA 230006 to 252595 (5:01) in 0:16. Filename: D:\New-Rip\The Dali CD\The Dali CD, Vol 4\12 Laurie Anderson - My Right Eye._
AccurateRip: Accurate (confidence 36) [Pass 1]
CRC32: 3FA20EDC AccurateRip CRC: DA1BD8F0 (CRCv2) [DiscID: 015-002561bd-01b35c2d-fb11820f-12]
AccurateRip Verified Confidence 36 [CRCv2 da1bd8f0]
AccurateRip Verified Confidence 2 [CRCv1 d21134c8]

Track 13: Ripped LBA 252595 to 281668 (6:27) in 0:20. Filename: D:\New-Rip\The Dali CD\The Dali CD, Vol 4\13 Boubacar Traoré - Bougoudani._
AccurateRip: Accurate (confidence 36) [Pass 1]
CRC32: 3E173834 AccurateRip CRC: 15337F7D (CRCv2) [DiscID: 015-002561bd-01b35c2d-fb11820f-13]
AccurateRip Verified Confidence 36 [CRCv2 15337f7d]
AccurateRip Verified Confidence 3 [CRCv1 6e8f254f]

Track 14: Ripped LBA 281668 to 319703 (8:27) in 0:25. Filename: D:\New-Rip\The Dali CD\The Dali CD, Vol 4\14 Infected Mushroom - Deeply Disturbed._
AccurateRip: Accurate (confidence 36) [Pass 1]
CRC32: 12F0EFCE AccurateRip CRC: 0AFCE512 (CRCv2) [DiscID: 015-002561bd-01b35c2d-fb11820f-14]
AccurateRip Verified Confidence 36 [CRCv2 afce512]
AccurateRip Verified Confidence 2 [CRCv1 ac40d8d5]

Track 15: Ripped LBA 319703 to 336166 (3:39) in 0:10. Filename: D:\New-Rip\The Dali CD\The Dali CD, Vol 4\15 Lucas Graham - Happy Home._
AccurateRip: Accurate (confidence 36) [Pass 1]
CRC32: 9E8D9433 AccurateRip CRC: D0E06B7A (CRCv2) [DiscID: 015-002561bd-01b35c2d-fb11820f-15]
AccurateRip Verified Confidence 36 [CRCv2 d0e06b7a]
AccurateRip Verified Confidence 2 [CRCv1 cac7800b]

--------------

15 Tracks Ripped Accurately
The Dali Vol.04 (2015)

01 - Eva Cassidy - Ain't No Sunshine
02 - Tom Jones - Did Trouble Me
03 - Eivør - Min Mуdir
04 - Michael Penn - Coal
05 - Jacques Loussier - Sicliano In G Minor
06 - Vestbo Trio - Mudslide
07 - Musica Temprana - Misa Criolla
08 - Zemtsov Viola Quartet - Verano Porteno
09 - Hans Zimmer - Wheel Of Fortune
10 - James Blood Ulmer Live Experience - Crying
11 - He Xiu Tan - Earth Drums
12 - Laurie Anderson - My Right Eye
13 - Boubacar Traorй - Bougoudani
14 - Infected Mushroom - Deeply Disturbed
15 - Lucas Graham - Happy Home
Why Music Matters
Actually being there in the presence of artists communicating directly with an audience must always be the ultimate yardstick by which we measure the experience of listening to electronically reproduced music.

Because of the fundamental nature of human hearing, it is extremely difficult (perhaps even impossible?)for hi-fi listening to ever trick us into believing that we are in the presence of real musicians and singers performing in a real space.

But the depth of our intellectual, emotional and physical response to the musical experience is directly related to the realism of the musical illusion generated by an audio system.

Natural Mood Enhancement
Music stimulates the production of adrenalin and dopamine in the brain, activating the brain’s pleasure centres to create a sense of well-being that is wholly organic and completely harmless.

While great music (as defined by you) played back on a telephone should be preferable to bad music played back on a high end system, the combination of your favourite music in the highest available recorded quality and a fine audio system will create a more profound, powerful and stimulating experience.

Unfortunately, the ubiquitous MP3 file format discards most of the music information so that portable players can store more songs and streaming services can work with low-bandwidth Internet connections. Discarded information is clearly audible as reduced detail, loss of “air” and spaciousness, and reduced vocal and instrumental timbre and clarity.

Some recordings are deliberately manipulated to sound artificially louder through dynamic range compression by boosting average levels, raising the level of quiet passages and lowering the level of the loudest passages. The principle casualty of the so-called Loudness Wars is the natural flow of shifting dynamics, a crucial factor defining the realism of music reproduction.
None of which contributes to the advancement of your listening pleasure.

For Serious Analysis and Musical Pleasure
Music is important to us, too important to allow it to be mangled by MP3 conversion or crushed by dynamic range compression or diminished by inferior playback equipment. That’s why we continue creating the DALI CD’s.

The CD you now hold in your hand is our fourth compilation in a highly praised series. These collections represent our best effort to provide reliable tools to assist you in the effective evaluation and demonstration of the accuracy and musicality of audio components.

This compilation contains a mix of household names and less familiar artists in various genres, recorded, mixed and mastered using different methods. Please give it a spin or two on a quality audio system. Preferably on a system you know well. Chances are that you will hear and appreciate what we consider to be superior sound quality on the majority of the selected tracks.

Don’t expect to like them all! Taste is different! But hopefully we have inspired you by introducing you to one or two tracks and/or artists that you’d never heard about.

Long live great music, great recordings and great audio systems. Long live the good old CD!

Enjoy!

DALI-CD-4-Cover.jpg
 
Не забывайте говорить Спасибо. Не уходите с раздачи!   
Торрент: Зарегистрирован [17 апр 2017, 10:45] Для скачивания .torrent
необходима регистрация
Или скачать с помощью
MediaGet
Статус:
Проверен
 
.torrent скачан: 2 раз
Хэш: ee07a0e24ab92564477074d7b3b61f064918f51f
Размер: 754.5 МБ (791 149 766 байт)
Стать Автором раздачи
 
 
Раздал: 100 ГБ
Скачал: 0 байт
Ратио: Seed.
Сообщения: 103298
Зарегистрирован: 09 апр 2015, 23:00


  • Похожие торренты
    Ответы
    Просмотры
    Последнее сообщение

Вернуться в Тестовые диски для настройки аудио/видео аппаратуры

Кто сейчас на конференции

Сейчас эту тему просматривают: нет зарегистрированных пользователей и гости: 1

Ресурс не предоставляет электронные версии произведений, а занимается лишь коллекционированием и каталогизацией ссылок, присылаемых и публикуемых на форуме нашими читателями. Если вы являетесь правообладателем какого-либо представленного материала и не желаете чтобы ссылка на него находилась в нашем каталоге, свяжитесь с нами и мы незамедлительно удалим её. Файлы для обмена на трекере предоставлены пользователями сайта, и администрация не несёт ответственности за их содержание. Просьба не заливать файлы, защищенные авторскими правами, а также файлы нелегального содержания!