Пасха Христова. Торжественное Пасхальное Богослужение из Кафедрального Соборного Храма Христа Спасителя / Россия 1HD [16.04.2017, Богослужение, HDRip/AVI/XviD, 400p]

 
 Статистика раздачи 
Размер: 1.88 ГБ   |  Зарегистрирован: 16 апр 2017, 10:54   |   .torrent скачан: 0 раз
Сидеров: 1  [ 0 байт/сек ]     Личеров: 0  [ 0 байт/сек ]  
  

Пасха Христова. Торжественное Пасхальное Богослужение из Кафедрального Соборного Храма Христа Спасителя / Россия 1HD [16.04.2017, Богослужение, HDRip/AVI/XviD, 400p]

Сообщение Lester » 16 апр 2017, 10:54

Пасха Христова
Торжественное Пасхальное Богослужение из Кафедрального Соборного Храма Христа Спасителя


Дата/Год выпуска: 16.04.2017
Страна: Россия
Жанр: Богослужение
Продолжительность: 02:44:15
Перевод: Не требуется
Русские субтитры: нет
Телеканал:
Описание: Телеканал "Россия 1" представляет трансляцию рождественского богослужения из Храма Христа Спасителя в Москве. В ночь с 15 апреля на 16 апреля 2017 года в кафедральном соборном Храме Христа Спасителя в Москве Святейший Патриарх Московский и всея Руси Кирилл совершил Пасхальные богослужения — полунощницу, крестный ход, Пасхальную заутреню и Божественную литургию свт. Иоанна Златоуста.
Автор рипа/записи:
Сэмпл: http://multi-up.com/1150292

Качество: HDRip
Формат видео: AVI
Видео: 720x400 (16:9), 25 fps, XviD, 1500 Kbps
Аудио: 48 kHz, MP3, 2 ch, 128.00 kbps avg
Код: Выделить всё
Полное имя                               :Пасха Христова. Прямая трансляция Торжественного Пасхального богослужения из Храма Христа Спасителя (16.04.17)[400p by GMM].avi
Формат                                   : AVI
Формат/Информация                        : Audio Video Interleave
Размер файла                             : 1,88 Гбайт
Продолжительность                        : 2 ч. 44 м.
Общий поток                              : 1636 Кбит/сек
Тема                                     : Пасха Христова. Прямая трансляция Торжественного Пасхального богослужения из Храма Христа Спасителя (16.04.17)[400p by GMM]
Библиотека кодирования                   : VirtualDub build 35576/release

Видео
Идентификатор                            : 0
Формат                                   : MPEG-4 Visual
Профиль формата                          : Advanced Simple@L5
Параметр BVOP формата                    : 2
Параметр QPel формата                    : Нет
Параметр GMC формата                     : Без точки перехода
Параметр матрицы формата                 : Default (H.263)
Идентификатор кодека                     : XVID
Идентификатор кодека/Подсказка           : XviD
Продолжительность                        : 2 ч. 44 м.
Битрейт                                  : 1500 Кбит/сек
Ширина                                   : 720 пикселей
Высота                                   : 400 пикселей
Соотношение сторон                       : 16:9
Частота кадров                           : 25,000 кадров/сек
Цветовое пространство                    : YUV
Субдискретизация насыщенности            : 4:2:0
Битовая глубина                          : 8 бит
Тип развёртки                            : Прогрессивная
Метод сжатия                             : С потерями
Бит/(Пиксели*Кадры)                      : 0.208
Размер потока                            : 1,72 Гбайт (92%)
Библиотека кодирования                   : XviD 73

Аудио
Идентификатор                            : 1
Формат                                   : MPEG Audio
Версия формата                           : Version 1
Профиль формата                          : Layer 3
Режим                                    : Joint stereo
Расширение режима                        : MS Stereo
Идентификатор кодека                     : 55
Идентификатор кодека/Подсказка           : MP3
Продолжительность                        : 2 ч. 44 м.
Вид битрейта                             : Постоянный
Битрейт                                  : 128 Кбит/сек
Каналы                                   : 2 канала
Частота                                  : 48,0 КГц
Метод сжатия                             : С потерями
Размер потока                            : 150 Мбайт (8%)
Выравнивание                             : Разделение по промежуткам
Продолжительность промежутка             : 64  мс. (1,60 видеокадра)
Время предзагрузки промежутка            : 64  мс.
 
Не забывайте говорить Спасибо. Не уходите с раздачи!   
Торрент: Зарегистрирован [16 апр 2017, 10:54] Для скачивания .torrent
необходима регистрация
Или скачать с помощью
MediaGet
Статус:
Проверен
 
.torrent скачан: 0 раз
Хэш: 28b978b4186ad23bd7bee81782bb337b92329454
Размер: 1.88 ГБ (2 015 092 864 байт)
Стать Автором раздачи
 
 
Раздал: 100 ГБ
Скачал: 0 байт
Ратио: Seed.
Сообщения: 115529
Зарегистрирован: 09 апр 2015, 23:00


  • Похожие торренты
    Ответы
    Просмотры
    Последнее сообщение

Вернуться в Христианство (видео)

Ресурс не предоставляет электронные версии произведений, а занимается лишь коллекционированием и каталогизацией ссылок, присылаемых и публикуемых на форуме нашими читателями. Если вы являетесь правообладателем какого-либо представленного материала и не желаете чтобы ссылка на него находилась в нашем каталоге, свяжитесь с нами и мы незамедлительно удалим её. Файлы для обмена на трекере предоставлены пользователями сайта, и администрация не несёт ответственности за их содержание. Просьба не заливать файлы, защищенные авторскими правами, а также файлы нелегального содержания!
cron