Пасха Христова. Торжественное Пасхальное Богослужение из Кафедрального Соборного Храма Христа Спасителя / Россия 1HD [16.04.2017, Богослужение, WEB-DL HD/MKV/H.264, 1080p]

 
 Статистика раздачи 
Размер: 4.96 ГБ   |  Зарегистрирован: 16 апр 2017, 09:21   |   .torrent скачан: 0 раз
Сидеров: 1  [ 0 байт/сек ]     Личеров: 0  [ 0 байт/сек ]  
  

Пасха Христова. Торжественное Пасхальное Богослужение из Кафедрального Соборного Храма Христа Спасителя / Россия 1HD [16.04.2017, Богослужение, WEB-DL HD/MKV/H.264, 1080p]

Сообщение Lester » 16 апр 2017, 09:21

Пасха Христова
Торжественное Пасхальное Богослужение из Кафедрального Соборного Храма Христа Спасителя


Дата/Год выпуска: 16.04.2017
Страна: Россия
Жанр: Богослужение
Продолжительность: 02:44:15
Перевод: Не требуется
Русские субтитры: нет
Телеканал:
Описание: Телеканал "Россия 1" представляет трансляцию рождественского богослужения из Храма Христа Спасителя в Москве. В ночь с 15 апреля на 16 апреля 2017 года в кафедральном соборном Храме Христа Спасителя в Москве Святейший Патриарх Московский и всея Руси Кирилл совершил Пасхальные богослужения — полунощницу, крестный ход, Пасхальную заутреню и Божественную литургию свт. Иоанна Златоуста.
Автор рипа/записи:
Сэмпл: http://multi-up.com/1150289

Качество: WEB-DL HD
Формат видео: MKV
Видео: 1920x1080p (16:9), 25 fps, AVC, ~4100 Kbps
Аудио: 48 kHz, AAC, 2 ch, ~192.00 kbps avg

Код: Выделить всё
Полное имя                               : Пасха Христова. Прямая трансляция Торжественного Пасхального богослужения из Храма Христа Спасителя (16.04.17)[1080p by GMM].mkv
Формат                                   : Matroska
Версия формата                           : Version 4 / Version 2
Размер файла                             : 4,96 Гбайт
Продолжительность                        : 2 ч. 44 м.
Режим общего битрейта                    : Переменный
Общий поток                              : 4322 Кбит/сек
Название фильма                          : Пасха Христова. Прямая трансляция Торжественного Пасхального богослужения из Храма Христа Спасителя (16.04.17)[1080p by GMM}
Дата кодирования                         : UTC 2017-04-16 05:37:00
Программа кодирования                    : mkvmerge v9.5.0 ('Quiet Fire') 64bit
Библиотека кодирования                   : libebml v1.3.4 + libmatroska v1.4.5

Видео
Идентификатор                            : 1
Формат                                   : AVC
Формат/Информация                        : Advanced Video Codec
Профиль формата                          : High@L4
Параметр CABAC формата                   : Да
Параметр ReFrames формата                : 4 кадра
Идентификатор кодека                     : V_MPEG4/ISO/AVC
Продолжительность                        : 2 ч. 44 м.
Вид битрейта                             : Переменный
Битрейт                                  : 4131 Кбит/сек
Максимальный битрейт                     : 4500 Кбит/сек
Ширина                                   : 1920 пикселей
Высота                                   : 1080 пикселей
Соотношение сторон                       : 16:9
Режим частоты кадров                     : Постоянный
Частота кадров                           : 25,000 кадров/сек
Цветовое пространство                    : YUV
Субдискретизация насыщенности            : 4:2:0
Битовая глубина                          : 8 бит
Тип развёртки                            : Прогрессивная
Бит/(Пиксели*Кадры)                      : 0.080
Размер потока                            : 4,74 Гбайт (96%)
Default                                  : Да
Forced                                   : Нет

Аудио
Идентификатор                            : 2
Формат                                   : AAC
Формат/Информация                        : Advanced Audio Codec
Профиль формата                          : LC
Идентификатор кодека                     : A_AAC
Продолжительность                        : 2 ч. 44 м.
Битрейт                                  : 192 Кбит/сек
Каналы                                   : 2 канала
Расположение каналов                     : Front: L R
Частота                                  : 48,0 КГц
Частота кадров                           : 46,875 кадров/сек (1024 spf)
Метод сжатия                             : С потерями
Размер потока                            : 223 Мбайт (4%)
Default                                  : Да
Forced                                   : Нет
 
Не забывайте говорить Спасибо. Не уходите с раздачи!   
Торрент: Зарегистрирован [16 апр 2017, 09:21] Скачать торрент
Скачать торрент
[ Размер 99.83 КБ / Просмотров 22 ]
Статус:
Проверен
 
.torrent скачан: 0 раз
Хэш: 5906f1834d6f73bed37398093f194552efb293c3
Размер: 4.96 ГБ (5 325 157 052 байт)
Стать Автором раздачи
 
 
Раздал: 100 ГБ
Скачал: 0 байт
Ратио: Seed.
Сообщения: 122812
Зарегистрирован: 09 апр 2015, 23:00


  • Похожие торренты
    Ответы
    Просмотры
    Последнее сообщение

Вернуться в Христианство (видео)

Ресурс не предоставляет электронные версии произведений, а занимается лишь коллекционированием и каталогизацией ссылок, присылаемых и публикуемых на форуме нашими читателями. Если вы являетесь правообладателем какого-либо представленного материала и не желаете чтобы ссылка на него находилась в нашем каталоге, свяжитесь с нами и мы незамедлительно удалим её. Файлы для обмена на трекере предоставлены пользователями сайта, и администрация не несёт ответственности за их содержание. Просьба не заливать файлы, защищенные авторскими правами, а также файлы нелегального содержания!
cron