(Choral, Orthodox Choir) [CD] Sofia Orthodox Choir - Dobri Hristov-Orthodox Chants From Bulgaria, Sofia Orthodox Choir - 1995 / 2000, FLAC (tracks+.cue), lossless

 
 Статистика раздачи 
Размер: 214.03 МБ   |  Зарегистрирован: 31 мар 2017, 08:52   |   .torrent скачан: 0 раз
Сидеров: 1  [ 0 байт/сек ]     Личеров: 0  [ 0 байт/сек ]  
  

(Choral, Orthodox Choir) [CD] Sofia Orthodox Choir - Dobri Hristov-Orthodox Chants From Bulgaria, Sofia Orthodox Choir - 1995 / 2000, FLAC (tracks+.cue), lossless

Сообщение Lester » 31 мар 2017, 08:52

Sofia Orthodox Choir / Dobri Hristov-Orthodox Chants From Bulgaria, Sofia Orthodox Choir

Жанр: Choral, Orthodox Choir
Носитель: CD
Страна-производитель диска (релиза): Болгария
Год издания: 1995 / 2000
Издатель (лейбл): Gega New
Номер по каталогу: GD 193
Страна исполнителя (группы): Болгария
Аудиокодек: FLAC (*.flac)
Тип рипа: tracks+.cue
Битрейт аудио: lossless
Продолжительность: 01:01:04
Источник (релизер): собственый рип
Наличие сканов в содержимом раздачи: да
Треклист:
Вceнощно Бдeниe
01. Тропaр нa Воcкрeceниe и cтиxовe [2'07"]
02. Пcaлом 103 [3'06"]
03. Вeликa eктeния [3'23"]
04. Блaжeн муж [4'44"]
05. Cвeтe тиxий [2'37"]
06. Нинe отпущaeши [3'38"]
07. Тропaр нa уcпeниe Богородично [1'22"]
08. Полиeлeй [4'30"]
09. Eвлогитaрий [3'17"]
10. Вeлико cлaвоcловиe [10'12"]
Прaвоcлaвнa Литургия
11. Во цaрcтвии Твоeм [2'30"]
12. Cвятий Божe (Вaрнa) [2'56"]
13. Xeрувимcкa пeceн № 4 [7'46"]
14. Проcитeлнa eктeния [5'20"]
15. Oтчe нaш № 2 [3'15"]

Солисты:
Николина Панкова - Soprano
Алис Боварян - Mezzo-Soprano
Iskander Turiare - Tenor
Свящ. Станой Андонов - Bass
Sofia Orthodox Choir
Miroslav Popsavov - Дирижёр


Recorded at St. Alexander Nevsky Cathedral, June 1995

Код: Выделить всё
Exact Audio Copy V1.1 from 23. June 2015

EAC extraction logfile from 30. March 2017, 12:48

Dobri Hristov / Orthodox Chants from Bulgaria

Used drive  : PLEXTOR DVDR   PX-L890SA   Adapter: 1  ID: 1

Read mode               : Secure
Utilize accurate stream : Yes
Defeat audio cache      : Yes
Make use of C2 pointers : No

Read offset correction                      : 6
Overread into Lead-In and Lead-Out          : No
Fill up missing offset samples with silence : Yes
Delete leading and trailing silent blocks   : No
Null samples used in CRC calculations       : Yes
Used interface                              : Native Win32 interface for Win NT & 2000
Gap handling                                : Appended to previous track

Used output format              : User Defined Encoder
Selected bitrate                : 1024 kBit/s
Quality                         : High
Add ID3 tag                     : Yes
Command line compressor         : C:\Program Files (x86)\Exact Audio Copy\FLAC\FLAC.EXE
Additional command line options : -8 -V -T "ARTIST=%artist%" -T "TITLE=%title%" -T "ALBUM=%albumtitle%" -T "DATE=%year%" -T "TRACKNUMBER=%tracknr%" -T "GENRE=%genre%" -T "COMMENT=EAC FLAC 1.2.1 -8" %source%

TOC of the extracted CD

     Track |   Start  |  Length  | Start sector | End sector
    ---------------------------------------------------------
        1  |  0:00.30 |  2:05.65 |        30    |     9469
        2  |  2:06.20 |  3:06.12 |      9470    |    23431
        3  |  5:12.32 |  3:22.03 |     23432    |    38584
        4  |  8:34.35 |  4:42.06 |     38585    |    59740
        5  | 13:16.41 |  2:40.55 |     59741    |    71795
        6  | 15:57.21 |  3:40.13 |     71796    |    88308
        7  | 19:37.34 |  1:24.66 |     88309    |    94674
        8  | 21:02.25 |  4:29.74 |     94675    |   114923
        9  | 25:32.24 |  3:19.09 |    114924    |   129857
       10  | 28:51.33 | 10:15.47 |    129858    |   176029
       11  | 39:07.05 |  2:35.15 |    176030    |   187669
       12  | 41:42.20 |  2:58.03 |    187670    |   201022
       13  | 44:40.23 |  7:45.68 |    201023    |   235965
       14  | 52:26.16 |  5:24.13 |    235966    |   260278
       15  | 57:50.29 |  3:20.60 |    260279    |   275338

Track  1

     Filename E:\rutracker.org\Dobri Hristov-Orthodox Chants From Bulgaria, Sofia Orthodox Choir\01 Troparion of Resurection and Verses.wav

     Pre-gap length  0:00:02.30

     Peak level 92.9 %
     Extraction speed 1.5 X
     Track quality 100.0 %
     Test CRC 4D6386F7
     Copy CRC 4D6386F7
     Track not present in AccurateRip database
     Copy OK

Track  2

     Filename E:\rutracker.org\Dobri Hristov-Orthodox Chants From Bulgaria, Sofia Orthodox Choir\02 Psalm 103.wav

     Peak level 51.2 %
     Extraction speed 1.8 X
     Track quality 100.0 %
     Test CRC 5E36172F
     Copy CRC 5E36172F
     Track not present in AccurateRip database
     Copy OK

Track  3

     Filename E:\rutracker.org\Dobri Hristov-Orthodox Chants From Bulgaria, Sofia Orthodox Choir\03 Great Litany.wav

     Peak level 11.6 %
     Extraction speed 2.0 X
     Track quality 100.0 %
     Test CRC 6F5FDC1D
     Copy CRC 6F5FDC1D
     Track not present in AccurateRip database
     Copy OK

Track  4

     Filename E:\rutracker.org\Dobri Hristov-Orthodox Chants From Bulgaria, Sofia Orthodox Choir\04 Blazhen mouzh.wav

     Peak level 49.6 %
     Extraction speed 2.3 X
     Track quality 100.0 %
     Test CRC E7BD7D19
     Copy CRC E7BD7D19
     Track not present in AccurateRip database
     Copy OK

Track  5

     Filename E:\rutracker.org\Dobri Hristov-Orthodox Chants From Bulgaria, Sofia Orthodox Choir\05 Svete tihii.wav

     Peak level 79.8 %
     Extraction speed 2.2 X
     Track quality 100.0 %
     Test CRC 1B8B6C34
     Copy CRC 1B8B6C34
     Track not present in AccurateRip database
     Copy OK

Track  6

     Filename E:\rutracker.org\Dobri Hristov-Orthodox Chants From Bulgaria, Sofia Orthodox Choir\06 Nine ootpushtaeshi.wav

     Peak level 48.8 %
     Extraction speed 2.4 X
     Track quality 100.0 %
     Test CRC ABD77B0C
     Copy CRC ABD77B0C
     Track not present in AccurateRip database
     Copy OK

Track  7

     Filename E:\rutracker.org\Dobri Hristov-Orthodox Chants From Bulgaria, Sofia Orthodox Choir\07 Troparion of the succession of our lady.wav

     Peak level 37.4 %
     Extraction speed 2.0 X
     Track quality 100.0 %
     Test CRC 66E67C6E
     Copy CRC 66E67C6E
     Track not present in AccurateRip database
     Copy OK

Track  8

     Filename E:\rutracker.org\Dobri Hristov-Orthodox Chants From Bulgaria, Sofia Orthodox Choir\08 Polyelos.wav

     Peak level 80.0 %
     Extraction speed 2.7 X
     Track quality 100.0 %
     Test CRC 984B1184
     Copy CRC 984B1184
     Track not present in AccurateRip database
     Copy OK

Track  9

     Filename E:\rutracker.org\Dobri Hristov-Orthodox Chants From Bulgaria, Sofia Orthodox Choir\09 Eulogitaria.wav

     Peak level 57.1 %
     Extraction speed 2.7 X
     Track quality 100.0 %
     Test CRC A50DA900
     Copy CRC A50DA900
     Track not present in AccurateRip database
     Copy OK

Track 10

     Filename E:\rutracker.org\Dobri Hristov-Orthodox Chants From Bulgaria, Sofia Orthodox Choir\10 Veliko slavoslovic.wav

     Peak level 82.8 %
     Extraction speed 3.3 X
     Track quality 100.0 %
     Test CRC 3266BA2D
     Copy CRC 3266BA2D
     Track not present in AccurateRip database
     Copy OK

Track 11

     Filename E:\rutracker.org\Dobri Hristov-Orthodox Chants From Bulgaria, Sofia Orthodox Choir\11 Vo tsarsvii Tvoem.wav

     Peak level 38.2 %
     Extraction speed 2.9 X
     Track quality 100.0 %
     Test CRC 90E0483E
     Copy CRC 90E0483E
     Track not present in AccurateRip database
     Copy OK

Track 12

     Filename E:\rutracker.org\Dobri Hristov-Orthodox Chants From Bulgaria, Sofia Orthodox Choir\12 Svyatii Bozhe (Varna).wav

     Peak level 36.6 %
     Extraction speed 3.1 X
     Track quality 100.0 %
     Test CRC 9314C232
     Copy CRC 9314C232
     Track not present in AccurateRip database
     Copy OK

Track 13

     Filename E:\rutracker.org\Dobri Hristov-Orthodox Chants From Bulgaria, Sofia Orthodox Choir\13 Cherubic Song N° 4 - Herouvimska pesen N° 4.wav

     Peak level 80.7 %
     Extraction speed 3.6 X
     Track quality 100.0 %
     Test CRC E65B4867
     Copy CRC E65B4867
     Track not present in AccurateRip database
     Copy OK

Track 14

     Filename E:\rutracker.org\Dobri Hristov-Orthodox Chants From Bulgaria, Sofia Orthodox Choir\14 Prositelna ektenia.wav

     Peak level 53.3 %
     Extraction speed 3.7 X
     Track quality 100.0 %
     Test CRC CF5750FA
     Copy CRC CF5750FA
     Track not present in AccurateRip database
     Copy OK

Track 15

     Filename E:\rutracker.org\Dobri Hristov-Orthodox Chants From Bulgaria, Sofia Orthodox Choir\15 Otche nash N° 2.wav

     Peak level 66.0 %
     Extraction speed 3.6 X
     Track quality 100.0 %
     Test CRC 98A8F836
     Copy CRC 98A8F836
     Track not present in AccurateRip database
     Copy OK

None of the tracks are present in the AccurateRip database

No errors occurred

End of status report

---- CUETools DB Plugin V2.1.6

[CTDB TOCID: 1tBKShbOw09nchHocFVWoOFfQV4-] found
Submit result: 1tBKShbOw09nchHocFVWoOFfQV4- has been confirmed
Track | CTDB Status
  1   | (1/1) Accurately ripped
  2   | (1/1) Accurately ripped
  3   | (1/1) Accurately ripped
  4   | (1/1) Accurately ripped
  5   | (1/1) Accurately ripped
  6   | (1/1) Accurately ripped
  7   | (1/1) Accurately ripped
  8   | (1/1) Accurately ripped
  9   | (1/1) Accurately ripped
 10   | (1/1) Accurately ripped
 11   | (1/1) Accurately ripped
 12   | (1/1) Accurately ripped
 13   | (1/1) Accurately ripped
 14   | (1/1) Accurately ripped
 15   | (1/1) Accurately ripped

==== Log checksum E44FA6A260EF691FBD165B3877C9F714FBD825A059265072469E484AA306476B ====
Код: Выделить всё
REM GENRE "Orthodox Chants"
REM DATE 1999
REM DISCID D90E570F
REM COMMENT "ExactAudioCopy v1.1"
PERFORMER "Dobri Hristov"
TITLE "Orthodox Chants from Bulgaria"
FILE "01 Troparion of Resurection and Verses.wav" WAVE
  TRACK 01 AUDIO
    TITLE "Troparion of Resurection and Verses"
    PERFORMER "Dobri Hristov"
    PREGAP 00:00:30
    INDEX 01 00:00:00
FILE "02 Psalm 103.wav" WAVE
  TRACK 02 AUDIO
    TITLE "Psalm 103"
    PERFORMER "Dobri Hristov"
    INDEX 01 00:00:00
FILE "03 Great Litany.wav" WAVE
  TRACK 03 AUDIO
    TITLE "Great Litany"
    PERFORMER "Dobri Hristov"
    INDEX 01 00:00:00
FILE "04 Blazhen mouzh.wav" WAVE
  TRACK 04 AUDIO
    TITLE "Blazhen mouzh"
    PERFORMER "Blessed is the man"
    INDEX 01 00:00:00
FILE "05 Svete tihii.wav" WAVE
  TRACK 05 AUDIO
    TITLE "Svete tihii"
    PERFORMER "O Gladsome radiance"
    INDEX 01 00:00:00
FILE "06 Nine ootpushtaeshi.wav" WAVE
  TRACK 06 AUDIO
    TITLE "Nine ootpushtaeshi"
    PERFORMER "Lord, Now lettest thou depart"
    INDEX 01 00:00:00
FILE "07 Troparion of the succession of our lady.wav" WAVE
  TRACK 07 AUDIO
    TITLE "Troparion of the succession of our lady"
    PERFORMER "Dobri Hristov"
    INDEX 01 00:00:00
FILE "08 Polyelos.wav" WAVE
  TRACK 08 AUDIO
    TITLE "Polyelos"
    PERFORMER "Dobri Hristov"
    INDEX 01 00:00:00
FILE "09 Eulogitaria.wav" WAVE
  TRACK 09 AUDIO
    TITLE "Eulogitaria"
    PERFORMER "Dobri Hristov"
    INDEX 01 00:00:00
FILE "10 Veliko slavoslovic.wav" WAVE
  TRACK 10 AUDIO
    TITLE "Veliko slavoslovic"
    PERFORMER "Great Doxology"
    INDEX 01 00:00:00
FILE "11 Vo tsarsvii Tvoem.wav" WAVE
  TRACK 11 AUDIO
    TITLE "Vo tsarsvii Tvoem"
    PERFORMER "In Thy Kingdom"
    INDEX 01 00:00:00
FILE "12 Svyatii Bozhe (Varna).wav" WAVE
  TRACK 12 AUDIO
    TITLE "Svyatii Bozhe (Varna)"
    PERFORMER "Holy Lord"
    INDEX 01 00:00:00
FILE "13 Cherubic Song N° 4 - Herouvimska pesen N° 4.wav" WAVE
  TRACK 13 AUDIO
    TITLE "Cherubic Song N° 4 : Herouvimska pesen N° 4"
    PERFORMER "Dobri Hristov"
    INDEX 01 00:00:00
FILE "14 Prositelna ektenia.wav" WAVE
  TRACK 14 AUDIO
    TITLE "Prositelna ektenia"
    PERFORMER "Litany of supplication"
    INDEX 01 00:00:00
FILE "15 Otche nash N° 2.wav" WAVE
  TRACK 15 AUDIO
    TITLE "Otche nash N° 2"
    PERFORMER "Our Father N° 2"
    INDEX 01 00:00:00
 
Не забывайте говорить Спасибо. Не уходите с раздачи!   
Торрент: Зарегистрирован [31 мар 2017, 08:52] Скачать торрент
Скачать торрент
[ Размер 18.64 КБ / Просмотров 48 ]
Статус:
Проверен
 
.torrent скачан: 0 раз
Хэш: f16909d1d0caa646afda54b41a86f8dc5267c7b8
Размер: 214.03 МБ (224 430 982 байт)
Стать Автором раздачи
 
 
Раздал: 100 ГБ
Скачал: 0 байт
Ратио: Seed.
Сообщения: 130960
Зарегистрирован: 09 апр 2015, 23:00


  • Похожие торренты
    Ответы
    Просмотры
    Последнее сообщение

Вернуться в Православные песнопения (lossless)

Ресурс не предоставляет электронные версии произведений, а занимается лишь коллекционированием и каталогизацией ссылок, присылаемых и публикуемых на форуме нашими читателями. Если вы являетесь правообладателем какого-либо представленного материала и не желаете чтобы ссылка на него находилась в нашем каталоге, свяжитесь с нами и мы незамедлительно удалим её. Файлы для обмена на трекере предоставлены пользователями сайта, и администрация не несёт ответственности за их содержание. Просьба не заливать файлы, защищенные авторскими правами, а также файлы нелегального содержания!
cron