Миллиарды / Billions (2017) WEB-DL [H.264] (сезон 2, серии 1-6 из 12) LostFilm [MP4|1280x720]

 
 Статистика раздачи 
Размер: 10.24 ГБ   |  Зарегистрирован: 30 мар 2017, 21:06   |   .torrent скачан: 0 раз
Сидеров: 1  [ 0 байт/сек ]     Личеров: 0  [ 0 байт/сек ]  
  

Миллиарды / Billions (2017) WEB-DL [H.264] (сезон 2, серии 1-6 из 12) LostFilm [MP4|1280x720]

Сообщение Ressler » 30 мар 2017, 21:06

Миллиарды / Billions (2017) WEB-DL (сезон 2, серии 1-6 из 12) LostFilm

«Power is the ultimate currency»
Производство: США / Showtime Entertainment
Жанр: Драма

Режиссер: Анна Боден, Райан Флек, Нил Бёргер
Актеры: Дэмиэн Льюис, Пол Джаматти, Мэгги Сифф, Малин Акерман, Дэниэл К. Исаак, Ильфенеш Хадера, Келли АуКойн, Тоби Леонард Мур, Дэвид Костабайл, Джек Гор и др.

Описание:
Продолжение популярного американского драматического сериала. Говорят, в современном мире невозможно заработать даже миллион честным путем. Только благодаря махинациям, манипуляциям и жестокой конкуренции можно добиться действительно больших высот в мире бизнеса. Бобби давно уже это понял, поэтому сейчас на всех его счетах хранится несколько миллиардов долларов, которые он успешно прибавляет с каждым днём. Прокурор Чак, который когда-то поклялся засадить за решетку этого наглого, но весьма влиятельного миллиардера, теперь всячески пытается подобраться к нему, в то время как Бобби всегда оказывается на шаг впереди. А всё благодаря его уникальной способности видеть ближайшее будущее…


Продолжительность: ~00:57:00 серия
Качество видео: WEB-DL 720p
Перевод: Многоголосый закадровый, профессиональный - LostFilm
Реклама: Присутствуют заставка и логотип LostFilm

Видео: AVC/H.264, 1280x720 (16:9), ~4000 Кбит/сек
Аудио: AAC, 2 канала, 243 Кбит/сек - русский (многоголосый закадровый)
Код: General
Complete name               : D:\NNMClub\Billions.S2.2017.WEB-DL.720p.LostFilm\Billions.S02E02.720p.WEB.rus.LostFilm.TV.mp4
Format                      : MPEG-4
Format profile              : Base Media
Codec ID                    : isom (isom)
File size                   : 1.72 GiB
Duration                    : 57 min 55 s
Overall bit rate mode       : Variable
Overall bit rate            : 4 245 kb/s
Collection                  : Миллиарды
Season                      : 2
Album                       : Миллиарды, Сезон 2
Album/Performer             : Миллиарды
Part                        : 2
Part/Position               : 2
Track name                  : Прыжок мёртвой кошки
Track name/Position         : 2
Performer                   : Миллиарды
Genre                       : Drama
ContentType                 : TV Show
Recorded date               : 2017
Encoded date                : UTC 2017-02-25 22:43:11
Tagged date                 : UTC 2017-02-25 22:43:11
Writing application         : Yamb 2.1.0.0 [http:/yamb.unite-video.com] / LostCoder
Copyright                   : LostFilm.TV (c)
Cover                       : Yes
Comment                     : Финансовый гений и миллиардер Бобби Аксельрод всего добился сам и не стесняется пользоваться своим богатством, скупая компании и элитную недвижимость направо и налево. Что не устраивает прокурора, желающего подловить Бобби на махинациях и упечь за решетку
Part_ID                     : 202

Video
ID                          : 1
Format                      : AVC
Format/Info                 : Advanced Video Codec
Format profile              :
Format settings, CABAC      : Yes
Format settings, ReFrames   : 4 frames
Codec ID                    : avc1
Codec ID/Info               : Advanced Video Coding
Duration                    : 57 min 55 s
Bit rate                    : 4 000 kb/s
Maximum bit rate            : 12.3 Mb/s
Width                       : 1 280 pixels
Height                      : 720 pixels
Display aspect ratio        : 16:9
Frame rate mode             : Constant
Frame rate                  : 23.976 (24000/1001) FPS
Original frame rate         : 23.976 (23976/1000) FPS
Color space                 : YUV
Chroma subsampling          : 4:2:0
Bit depth                   : 8 bits
Scan type                   : Progressive
Bits/(Pixel*Frame)          : 0.181
Stream size                 : 1.62 GiB (94%)
Title                       : Imported with GPAC 0.4.6-DEV (internal rev. 5)
Writing library             : x264 core 112 r1834 a51816a
Encoding settings           : cabac=1 / ref=4 / deblock=1:-3:-2 / analyse=0x3:0x113 / me=hex / subme=7 / psy=1 / psy_rd=1.00:0.00 / mixed_ref=1 / me_range=16 / chroma_me=1 / trellis=1 / 8x8dct=1 / cqm=0 / deadzone=21,11 / fast_pskip=1 / chroma_qp_offset=-2 / threads=12 / sliced_threads=0 / nr=0 / decimate=1 / interlaced=0 / constrained_intra=0 / bframes=5 / b_pyramid=2 / b_adapt=1 / b_bias=0 / direct=1 / weightb=1 / open_gop=0 / weightp=2 / keyint=250 / keyint_min=25 / scenecut=40 / intra_refresh=0 / rc_lookahead=40 / rc=2pass / mbtree=1 / bitrate=4000 / ratetol=1.0 / qcomp=0.60 / qpmin=0 / qpmax=51 / qpstep=4 / cplxblur=20.0 / qblur=0.5 / vbv_maxrate=10000 / vbv_bufsize=256000 / ip_ratio=1.40 / aq=1:1.00 / nal_hrd=none
Encoded date                : UTC 2017-02-25 11:58:04
Tagged date                 : UTC 2017-02-25 22:45:40

Audio
ID                          : 2
Format                      : AAC
Format/Info                 : Advanced Audio Codec
Format profile              : LC
Codec ID                    : 40
Duration                    : 57 min 55 s
Bit rate mode               : Variable
Bit rate                    : 243 kb/s
Maximum bit rate            : 291 kb/s
Channel(s)                  : 2 channels
Channel positions           : Front: L R
Sampling rate               : 48.0 kHz
Frame rate                  : 46.875 FPS (1024 spf)
Compression mode            : Lossy
Stream size                 : 101 MiB (6%)
Encoded date                : UTC 2017-02-25 22:45:38
Tagged date                 : UTC 2017-02-25 22:45:40
01. Risk Management / Управление рисками
02. Dead Cat Bounce / Прыжок мертвой кошки
03. Optimal Play / Оптимальная игра
04. The Oath / Клятва
05. Currency / Валюта
06. Indian Four / Индиан 4
Внимание! Раздача ведётся путём добавления новых серий; при каждом добавлении создаётся новый торрент.
Чтобы начать докачку новой серии, пользователям необходимо сделать следующее:
1. Остановить скачивание;
2. Удалить старый торрент у себя из клиента (старые серии удалять не надо);
3. Скачать новый торрент и запустить его у себя в клиенте вместо старого, при этом указать клиенту путь в старую папку куда и должно происходить скачивание новых серий. Ваш клиент при этом должен произвести хеширование (проверку) старой папки и будет докачивать только те серии, которых у вас ещё нет. Старые серии при этом не удаляются, а продолжают раздаваться! Eсли вы уже удалили старые серии, то предотвратить повторную закачку старых серий можно, отжав галочку в соответствующих местах при запуске нового торрента.

Скриншоты:




Время раздачи: 24/7 до первых 5-10 скачавших
 
Не забывайте говорить Спасибо. Не уходите с раздачи!   
Торрент: Зарегистрирован [30 мар 2017, 21:06] Для скачивания .torrent
необходима регистрация
Или скачать с помощью
MediaGet
Статус:
Проверен
 
.torrent скачан: 0 раз
Хэш: e4285d0ea7df016b610e4855989dfc39466a74aa
Размер: 10.24 ГБ (10 997 680 500 байт)
Стать Автором раздачи
 
 
Раздал: 100 ГБ
Скачал: 0 байт
Ратио: Seed.
Сообщения: 29984
Зарегистрирован: 09 апр 2015, 23:02


  • Похожие торренты
    Ответы
    Просмотры
    Последнее сообщение

Вернуться в Видео для мобильных устройств

Ресурс не предоставляет электронные версии произведений, а занимается лишь коллекционированием и каталогизацией ссылок, присылаемых и публикуемых на форуме нашими читателями. Если вы являетесь правообладателем какого-либо представленного материала и не желаете чтобы ссылка на него находилась в нашем каталоге, свяжитесь с нами и мы незамедлительно удалим её. Файлы для обмена на трекере предоставлены пользователями сайта, и администрация не несёт ответственности за их содержание. Просьба не заливать файлы, защищенные авторскими правами, а также файлы нелегального содержания!
cron