Обезглавливающий цикл: Синий Савант и Повелитель Бессмыслиц / Kubikiri Cycle: Aoiro Savant to Zaregoto Tsukai (Симбо Акиюки) [OVA] [1-4 из 8] [без хардсаба] [JAP+SUB] [2016, приключения, BDRemux] [1080p]

 
 Статистика раздачи 
Размер: 31.5 ГБ   |  Зарегистрирован: 21 мар 2017, 01:41   |   .torrent скачан: 0 раз
Сидеров: 3  [ 0 байт/сек ]     Личеров: 1  [ 0 байт/сек ]  
  

Обезглавливающий цикл: Синий Савант и Повелитель Бессмыслиц / Kubikiri Cycle: Aoiro Savant to Zaregoto Tsukai (Симбо Акиюки) [OVA] [1-4 из 8] [без хардсаба] [JAP+SUB] [2016, приключения, BDRemux] [1080p]

Сообщение Lester » 21 мар 2017, 01:41

Обезглавливающий цикл: Синий Савант и Повелитель Бессмыслиц / Kubikiri Cycle: Aoiro Savant to Zaregoto Tsukai

Год выпуска: 2016
Страна: Япония
Жанр: приключения
Тип: OVA
Продолжительность: 8 эп. по ~28 мин.
Озвучка: нет

Русские субтитры: есть (отдельным файлом, формат .ass)
Перевод:Makentosh, MustDie [AOS]
[*]Ararararagi, Sempre_Libera [SovetRomantica]Хардсаб: Нет
Режиссер: Симбо Акиюки
Студия: SHAFT

Описание: Сюжет, о котором нам поведает данное аниме, будут рассказываться от первого лица. Главный герой, вопреки своей воле и желаниям, постоянно оказывается втянут в какие-то истории с убийствами и загадками и вечно вовлечен в гущу событий. Как ни пытается он избежать этого, судьба не на его стороне, так что приходится ему впрягаться в ярмо и стараться отыскать ключи к тайнам. Вот только, сколько бы усилий он ни прилагал, как бы ни старался, в итоге оказывается, что всё, что бы он ни сделал, — всё тщетно.

Качество: Blu-Ray Remux
Формат: MKV
Видео кодек: AVC
Аудио кодек: FLAC
Видео: 1920x1080 (16:9) 23,976 fps ~36,8 Mbps 8bit
Аудио:
Jap FLAC, 48000Hz, ~1367 Kbps, 2ch

Чаптеры присутствуют.
01. День третий (1) Ультрамариновый савант
02. День третий (2) Сбор и вычисления
03. День четвёртый (1) Первое обезглавливание
04. День четвёртый (2) Трагедия 0,14


Общее
Уникальный идентификатор : 251825826222260885587556758825431262980 (0xBD73E3D3B5220EFAA895001454D0E704)
Полное имя : Z:\Anime Release - working\Kubikiri\[anti-raws]Kubikiri Cycle Aoiro Savant to Zaregoto Tsukai ep.1[BDRemux].mkv
Формат : Matroska
Версия формата : Version 4 / Version 2
Размер файла : 7,43 Гбайт
Продолжительность : 27 м.
Режим общего битрейта : Переменный
Общий поток : 39,1 Мбит/сек
Дата кодирования : UTC 2017-03-20 21:55:29
Программа кодирования : mkvmerge v9.9.0 ('Pick Up') 64bit
Библиотека кодирования : libebml v1.3.4 + libmatroska v1.4.5

Видео
Идентификатор : 2
Формат : AVC
Формат/Информация : Advanced Video Codec
Профиль формата : High@L4.1
Параметр CABAC формата : Да
Параметр ReFrames формата : 4 кадра
Идентификатор кодека : V_MPEG4/ISO/AVC
Продолжительность : 27 м.
Вид битрейта : Переменный
Битрейт : 37,7 Мбит/сек
Максимальный битрейт : 40,0 Мбит/сек
Ширина : 1920 пикселей
Высота : 1080 пикселей
Соотношение сторон : 16:9
Режим частоты кадров : Постоянный
Частота кадров : 23,976 (24000/1001) кадра/сек
Цветовое пространство : YUV
Субдискретизация насыщенности : 4:2:0
Битовая глубина : 8 бит
Тип развёртки : Прогрессивная
Бит/(Пиксели*Кадры) : 0.758
Размер потока : 7,17 Гбайт (96%)
Default : Нет
Forced : Нет

Аудио
Идентификатор : 1
Формат : FLAC
Формат/Информация : Free Lossless Audio Codec
Идентификатор кодека : A_FLAC
Продолжительность : 27 м.
Вид битрейта : Переменный
Битрейт : 1367 Кбит/сек
Каналы : 2 канала
Расположение каналов : Front: L R
Частота : 48,0 КГц
Частота кадров : 11,719 кадров/сек (4096 spf)
Битовая глубина : 24 бит
Размер потока : 266 Мбайт (3%)
Библиотека кодирования : libFLAC 1.2.1 (UTC 2007-09-17)
Язык : Japanese
Default : Да
Forced : Нет

Меню
00:00:00.000 : en:00:00:00.000
00:02:57.677 : en:00:02:57.677
00:05:35.627 : en:00:05:35.627
00:08:28.508 : en:00:08:28.508
00:12:16.986 : en:00:12:16.986
00:19:24.121 : en:00:19:24.121
00:21:37.630 : en:00:21:37.630
00:25:38.996 : en:00:25:38.996
--BDRip

Эта раздача - BDRemux
 
Не забывайте говорить Спасибо. Не уходите с раздачи!   
Торрент: Зарегистрирован [21 мар 2017, 01:41] Для скачивания .torrent
необходима регистрация
Или скачать с помощью
MediaGet
Статус:
Проверен
 
.torrent скачан: 0 раз
Хэш: b5c0d86d21339c54ff6037b87595045faf5bc33c
Размер: 31.5 ГБ (33 823 605 856 байт)
Стать Автором раздачи
 
 
Раздал: 100 ГБ
Скачал: 0 байт
Ратио: Seed.
Сообщения: 103531
Зарегистрирован: 09 апр 2015, 23:00


  • Похожие торренты
    Ответы
    Просмотры
    Последнее сообщение

Вернуться в Аниме (HD и Blu-ray)

Кто сейчас на конференции

Сейчас эту тему просматривают: нет зарегистрированных пользователей и гости: 1

Ресурс не предоставляет электронные версии произведений, а занимается лишь коллекционированием и каталогизацией ссылок, присылаемых и публикуемых на форуме нашими читателями. Если вы являетесь правообладателем какого-либо представленного материала и не желаете чтобы ссылка на него находилась в нашем каталоге, свяжитесь с нами и мы незамедлительно удалим её. Файлы для обмена на трекере предоставлены пользователями сайта, и администрация не несёт ответственности за их содержание. Просьба не заливать файлы, защищенные авторскими правами, а также файлы нелегального содержания!