Синг Стрит / Sing Street (Джон Карни / John Carney) [2016, Ирландия, Великобритания, США, драма, мелодрама, комедия, музыка, BDRip] VO (Михаил Яроцкий) + Sub Rus, Eng + Original Eng

Самое свежее и новое. Побалуй себя новинками этого года!
 
 Статистика раздачи 
Размер: 8.04 ГБ   |  Зарегистрирован: 21 мар 2017, 01:41   |   .torrent скачан: 0 раз
Сидеров: 1  [ 0 байт/сек ]     Личеров: 0  [ 0 байт/сек ]  
  

Синг Стрит / Sing Street (Джон Карни / John Carney) [2016, Ирландия, Великобритания, США, драма, мелодрама, комедия, музыка, BDRip] VO (Михаил Яроцкий) + Sub Rus, Eng + Original Eng

Сообщение Lester » 21 мар 2017, 01:41

Синг Стрит / Sing Street

«Boy meets girl, girl unimpressed, boy starts band»
Страна: Ирландия, Великобритания, США
Жанр: Драма, мелодрама, комедия, музыка
Год выпуска: 2016
Продолжительность: 01:45:24
Перевод: Одноголосый закадровый - Михаил Яроцкий
Cубтитры: русские (на песни)
Оригинальная аудиодорожка: английский

Режиссер: Джон Карни / John Carney

В ролях: Фердия Уолш-Пило, Келли Торнтон, Мария Дойл Кеннеди, Джек Рейнор, Эйден Гиллен, Йен Кенни, Бен Керолан, Перси Чамбурука, Марк МакКенна, Дон Вичерли
Описание: Ностальгическая музыкальная драма о взрослении. Когда экономический кризис 1980-х ударяет по семье Конора, его переводят из престижной частной школы в государственную. Подросток сталкивается с грубостью и невежеством новой среды и, кроме того, влюбляется в недосягаемую красавицу. Желая впечатлить девушку, Конор собирает рок-группу.


Качество видео: BDRip [Sing.Street.2016.1080p.BluRay.AVC.DTS-HD.MA.5.1-RARBG]
Формат видео: MKV

Видео: MPEG-4 AVC, 1280x536 (2.40:1), 7448 Kbit/s, 23.976 fps, 0.440 bit/pixel
Аудио 1: 48 kHz, DTS, 3/2 (L,C,R,l,r) + LFE ch, ~1510.00 kbps - VO
Аудио 2: 48 kHz, AC3, 3/2 (L,C,R,l,r) + LFE ch, ~448 kbps - VO
Аудио 3: 48 kHz, DTS, 3/2 (L,C,R,l,r) + LFE ch, ~1510.00 kbps - Оригинал
Формат субтитров: softsub (SRT) - Русские (полные, форсированные [на песни]), английские
Перевод Михаила Яроцкого доступен благодаря: iVov4ik
Работа со звуком: Переводман
Внимание! Однократно присутствует ненормативное выражение!
General
Unique ID : 188967217990772630618654181765794283348 (0x8E29C32A42C0D0EE92D617B681DCBF54)
Complete name : C:\Downloads\Sing.Street.2016.BDRip.720p.mkv
Format : Matroska
Format version : Version 2
File size : 8.04 GiB
Duration : 1h 45mn
Overall bit rate : 10.9 Mbps
Encoded date : UTC 2017-03-20 21:28:01
Writing application : mkvmerge v4.6.0 ('Still Crazy After All These Years') сборка от Mar 10 2011 02:50:32
Writing library : libebml v1.2.0 + libmatroska v1.1.0
DURATION : 01:44:19.128000000
NUMBER_OF_FRAMES : 2092
NUMBER_OF_BYTES : 59260
_STATISTICS_WRITING_APP : mkvmerge v8.3.0 ('Over the Horizon') 64bit
_STATISTICS_WRITING_DATE_UTC : 2017-03-18 12:52:54
_STATISTICS_TAGS : BPS DURATION NUMBER_OF_FRAMES NUMBER_OF_BYTES

Video
ID : 1
Format : AVC
Format/Info : Advanced Video Codec
Format profile : High@L4.1
Format settings, CABAC : Yes
Format settings, ReFrames : 12 frames
Codec ID : V_MPEG4/ISO/AVC
Duration : 1h 45mn
Bit rate : 7 235 Kbps
Width : 1 280 pixels
Height : 536 pixels
Display aspect ratio : 2.40:1
Frame rate mode : Constant
Frame rate : 23.976 fps
Color space : YUV
Chroma subsampling : 4:2:0
Bit depth : 8 bits
Scan type : Progressive
Bits/(Pixel*Frame) : 0.440
Stream size : 5.33 GiB (66%)
Writing library : x264 core 148 r2638 7599210
Encoding settings : cabac=1 / ref=12 / deblock=1:-3:-3 / analyse=0x3:0x133 / me=tesa / subme=11 / psy=1 / psy_rd=1.00:0.00 / mixed_ref=1 / me_range=24 / chroma_me=1 / trellis=2 / 8x8dct=1 / cqm=0 / deadzone=21,11 / fast_pskip=0 / chroma_qp_offset=-2 / threads=12 / lookahead_threads=3 / sliced_threads=0 / nr=0 / decimate=1 / interlaced=0 / bluray_compat=0 / constrained_intra=0 / bframes=10 / b_pyramid=2 / b_adapt=2 / b_bias=0 / direct=3 / weightb=1 / open_gop=0 / weightp=2 / keyint=240 / keyint_min=23 / scenecut=40 / intra_refresh=0 / rc_lookahead=60 / rc=crf / mbtree=0 / crf=15.6 / qcomp=0.73 / qpmin=0 / qpmax=69 / qpstep=4 / vbv_maxrate=62500 / vbv_bufsize=78125 / crf_max=0.0 / nal_hrd=none / filler=0 / ip_ratio=1.30 / pb_ratio=1.16 / aq=1:0.80
Language : English
Default : Yes
Forced : No

Audio #1
ID : 2
Format : DTS
Format/Info : Digital Theater Systems
Mode : 16
Format settings, Endianness : Big
Codec ID : A_DTS
Duration : 1h 45mn
Bit rate mode : Constant
Bit rate : 1 509 Kbps
Channel(s) : 6 channels
Channel positions : Front: L C R, Side: L R, LFE
Sampling rate : 48.0 KHz
Bit depth : 24 bits
Compression mode : Lossy
Delay relative to video : 11ms
Stream size : 1.11 GiB (14%)
Title : VO Перевод М.Яроцкого-kyberpunk DTS
Language : Russian
Default : Yes
Forced : No

Audio #2
ID : 3
Format : AC-3
Format/Info : Audio Coding 3
Mode extension : CM (complete main)
Format settings, Endianness : Big
Codec ID : A_AC3
Duration : 1h 45mn
Bit rate mode : Constant
Bit rate : 448 Kbps
Channel(s) : 6 channels
Channel positions : Front: L C R, Side: L R, LFE
Sampling rate : 48.0 KHz
Bit depth : 16 bits
Compression mode : Lossy
Stream size : 338 MiB (4%)
Title : VO Перевод М.Яроцкого-kyberpunk AC3
Language : Russian
Default : No
Forced : No

Audio #3
ID : 4
Format : DTS
Format/Info : Digital Theater Systems
Mode : 16
Format settings, Endianness : Big
Codec ID : A_DTS
Duration : 1h 45mn
Bit rate mode : Constant
Bit rate : 1 509 Kbps
Channel(s) : 6 channels
Channel positions : Front: L C R, Side: L R, LFE
Sampling rate : 48.0 KHz
Bit depth : 24 bits
Compression mode : Lossy
Delay relative to video : 11ms
Stream size : 1.11 GiB (14%)
Title : Original
Language : English
Default : No
Forced : No

Text #1
ID : 5
Format : UTF-8
Codec ID : S_TEXT/UTF8
Codec ID/Info : UTF-8 Plain Text
Title : Перевод Pandem и Polmila
Language : Russian
Default : No
Forced : No

Text #2
ID : 6
Format : UTF-8
Codec ID : S_TEXT/UTF8
Codec ID/Info : UTF-8 Plain Text
Title : Перевод anthonyer
Language : Russian
Default : No
Forced : No

Text #3
ID : 7
Format : UTF-8
Codec ID : S_TEXT/UTF8
Codec ID/Info : UTF-8 Plain Text
Title : Перевод песен Pandem и Polmila
Language : Russian
Default : Yes
Forced : No

Text #4
ID : 8
Format : UTF-8
Codec ID : S_TEXT/UTF8
Codec ID/Info : UTF-8 Plain Text
Title : Перевод песен М.Яроцкого aka kyberpunk
Language : Russian
Default : No
Forced : No

Text #5
ID : 9
Format : UTF-8
Codec ID : S_TEXT/UTF8
Codec ID/Info : UTF-8 Plain Text
Title : Full
Language : English
Default : No
Forced : No

Text #6
ID : 10
Format : UTF-8
Codec ID : S_TEXT/UTF8
Codec ID/Info : UTF-8 Plain Text
Title : SDH
Language : English
Default : No
Forced : No

Menu
00:00:00.000 : en:00:00:00.000
00:05:00.967 : en:00:05:00.967
00:09:40.747 : en:00:09:40.747
00:14:58.314 : en:00:14:58.314
00:20:49.707 : en:00:20:49.707
00:26:50.776 : en:00:26:50.776
00:32:27.279 : en:00:32:27.279
00:36:50.583 : en:00:36:50.583
00:43:37.782 : en:00:43:37.782
00:49:09.321 : en:00:49:09.321
00:55:03.050 : en:00:55:03.050
01:00:29.459 : en:01:00:29.459
01:04:38.625 : en:01:04:38.625
01:08:57.508 : en:01:08:57.508
01:14:55.783 : en:01:14:55.783
01:20:44.006 : en:01:20:44.006
01:27:05.554 : en:01:27:05.554
01:31:35.907 : en:01:31:35.907
01:36:47.010 : en:01:36:47.010
01:41:17.154 : en:01:41:17.154


 
Не забывайте говорить Спасибо. Не уходите с раздачи!   
Торрент: Зарегистрирован [21 мар 2017, 01:41] Для скачивания .torrent
необходима регистрация
Или скачать с помощью
MediaGet
Статус:
Проверен
 
.torrent скачан: 0 раз
Хэш: ec8af01af4a23b712c19ebf61fd99ea93455073c
Размер: 8.04 ГБ (8 631 785 335 байт)
Стать Автором раздачи
 
 
Раздал: 100 ГБ
Скачал: 0 байт
Ратио: Seed.
Сообщения: 108041
Зарегистрирован: 09 апр 2015, 23:00


  • Похожие торренты
    Ответы
    Просмотры
    Последнее сообщение

Вернуться в Зарубежные фильмы 2016-2017 года

Ресурс не предоставляет электронные версии произведений, а занимается лишь коллекционированием и каталогизацией ссылок, присылаемых и публикуемых на форуме нашими читателями. Если вы являетесь правообладателем какого-либо представленного материала и не желаете чтобы ссылка на него находилась в нашем каталоге, свяжитесь с нами и мы незамедлительно удалим её. Файлы для обмена на трекере предоставлены пользователями сайта, и администрация не несёт ответственности за их содержание. Просьба не заливать файлы, защищенные авторскими правами, а также файлы нелегального содержания!
cron