[TR24][OF] Tropical Trash - Decisions' Empty Nest - 2017 (Noise Rock, Punk, Lo Fi)

 
 Статистика раздачи 
Размер: 163.47 МБ   |  Зарегистрирован: 21 мар 2017, 01:10   |   .torrent скачан: 0 раз
Сидеров: 1  [ 0 байт/сек ]     Личеров: 0  [ 0 байт/сек ]  
  

[TR24][OF] Tropical Trash - Decisions' Empty Nest - 2017 (Noise Rock, Punk, Lo Fi)

Сообщение Lester » 21 мар 2017, 01:10

Tropical Trash / Decisions' Empty Nest

Формат записи/Источник записи: [TR24][OF]
Наличие водяных знаков: Нет
Год издания/переиздания диска: 2017
Жанр: Noise Rock, Punk, Lo Fi
Издатель (лейбл): Sophomore Lounge
Продолжительность: 00:07:21
Наличие сканов в содержимом раздачи: web
Треклист:

1. A1 Early Wish 03:17
2. B1 Early Wish Pt. 2 01:29
3. B2 Exit Dust 01:33
4. B3 Trouble Shot 01:02

Контейнер: FLAC (*.flac)
Тип рипа: tracks
Разрядность: 24/96
Формат: WAV (flac.ape.wv)
Количество каналов: 2.0
Источник (релизер): Red, hypermodified -> Bandcamp
Код: Выделить всё
foobar2000 1.1.5 / Замер динамического диапазона (DR) 1.1.1
Дата отчёта: 2017-03-21 00:17:54

--------------------------------------------------------------------------------
Анализ:   Tropical Trash / Decisions' Empty Nest
--------------------------------------------------------------------------------

DR         Пики          RMS        Продолжительность трека
--------------------------------------------------------------------------------
DR6       -0.78 дБ    -7.32 дБ      3:18 01-Early Wish
DR6       -0.78 дБ    -7.24 дБ      1:29 02-Early Wish Pt. 2
DR6       -0.78 дБ    -7.00 дБ      1:33 03-Exit Dust
DR6       -0.78 дБ    -7.46 дБ      1:02 04-Trouble Shot
--------------------------------------------------------------------------------

Количество треков: 4
Реальные значения DR: DR6

Частота:  96000 Гц
Каналов:  2
Разрядность:   24
Битрейт:  3110 кбит/с
Кодек:   FLAC
================================================================================

Tropical Trash

Louisville, Kentucky

BIM THOMAS
JIM MARLOWE
RYAN DAVIS
R CLINT COLBURN

RECORDED BY PAUL MACCARONE IN CLEVELAND SPRING 2016
MASTERED BY DANIEL HUSAYN AT NORTH LONDON BOMB FACTORY

 
Не забывайте говорить Спасибо. Не уходите с раздачи!   
Торрент: Зарегистрирован [21 мар 2017, 01:10] Для скачивания .torrent
необходима регистрация
Или скачать с помощью
MediaGet
Статус:
Проверен
 
.torrent скачан: 0 раз
Хэш: 98f79edd7e308b4cdb14fcae2156b7f55f85c8b0
Размер: 163.47 МБ (171 407 699 байт)
Стать Автором раздачи
 
 
Раздал: 100 ГБ
Скачал: 0 байт
Ратио: Seed.
Сообщения: 104279
Зарегистрирован: 09 апр 2015, 23:00


  • Похожие торренты
    Ответы
    Просмотры
    Последнее сообщение

Вернуться в Зарубежный рок (Hi-Res stereo)

Ресурс не предоставляет электронные версии произведений, а занимается лишь коллекционированием и каталогизацией ссылок, присылаемых и публикуемых на форуме нашими читателями. Если вы являетесь правообладателем какого-либо представленного материала и не желаете чтобы ссылка на него находилась в нашем каталоге, свяжитесь с нами и мы незамедлительно удалим её. Файлы для обмена на трекере предоставлены пользователями сайта, и администрация не несёт ответственности за их содержание. Просьба не заливать файлы, защищенные авторскими правами, а также файлы нелегального содержания!
cron