[TR24][OF] Depeche Mode - Spirit (Deluxe edition) - 2017 (Synthpop, Electronic, Alternative)

 
 Статистика раздачи 
Размер: 852.28 МБ   |  Зарегистрирован: 21 мар 2017, 01:10   |   .torrent скачан: 2 раз
Сидеров: 1  [ 0 байт/сек ]     Личеров: 0  [ 0 байт/сек ]  
  

[TR24][OF] Depeche Mode - Spirit (Deluxe edition) - 2017 (Synthpop, Electronic, Alternative)

Сообщение Lester » 21 мар 2017, 01:10

Depeche Mode / Spirit

Формат записи/Источник записи: [TR24][OF]
Наличие водяных знаков: Нет
Издание: Deluxe edition
Год издания/переиздания диска: 2017
Жанр: Synthpop, Electronic, Alternative
Издатель (лейбл): Columbia Records
Продолжительность: 01:16:31
Наличие сканов в содержимом раздачи: Только обложка альбома

Треклист:
01. Going Backwards
02. Where's The Revolution
03. The Worst Crime
04. Scrum
05. You Move
06. Cover Me
07. Eternal
08. Poison Heart
09. So Much Love
10. Poorman
11. No More (This Is The Last Time)
12. Fail
13. Cover Me (Alt Out)
14. Scum (Frenetic Mix)
15. Poison Heart (Tripped Mix)
16. Fail (Cinematic Cut)
17. So Much Love (Machine Mix)

Контейнер: FLAC (*.flac)
Тип рипа: tracks

Разрядность: 24/44,1
Формат: PCM
Количество каналов: 2.0
Код: Выделить всё
foobar2000 1.3.7 / Dynamic Range Meter 1.1.1
log date: 2017-03-20 01:14:37

--------------------------------------------------------------------------------
Analyzed: Depeche Mode / Spirit (Deluxe)
--------------------------------------------------------------------------------

DR         Peak         RMS     Duration Track
--------------------------------------------------------------------------------
DR6       -0.31 dB    -7.81 dB      5:43 01-Going Backwards
DR6       -0.31 dB    -8.02 dB      4:59 02-Where's the Revolution
DR7       -0.31 dB   -10.12 dB      3:48 03-The Worst Crime
DR6       -0.31 dB    -7.20 dB      3:14 04-Scum
DR7       -0.31 dB    -8.80 dB      3:50 05-You Move
DR7       -0.31 dB    -9.59 dB      4:52 06-Cover Me
DR7       -0.31 dB   -11.03 dB      2:25 07-Eternal
DR6       -0.31 dB    -7.73 dB      3:17 08-Poison Heart
DR6       -0.31 dB    -7.17 dB      4:29 09-So Much Love
DR7       -0.31 dB    -8.92 dB      4:26 10-Poorman
DR6       -0.31 dB    -7.24 dB      3:14 11-No More (This is the Last Time)
DR6       -0.31 dB    -8.61 dB      5:07 12-Fail
DR7       -0.30 dB    -8.67 dB      4:27 13-Cover Me (Alt Out)
DR7       -0.30 dB    -8.84 dB      5:26 14-Scum (Frenetic Mix)
DR6       -0.30 dB    -8.15 dB      4:16 15-Poison Heart (Tripped Mix)
DR6       -0.30 dB    -8.48 dB      5:38 16-Fail (Cinematic Cut)
DR5       -0.30 dB    -5.48 dB      7:20 17-So Much Love (Machine Mix)
--------------------------------------------------------------------------------

Number of tracks:  17
Official DR value: DR6

Samplerate:        44100 Hz
Channels:          2
Bits per sample:   24
Bitrate:           1443 kbps
Codec:             FLAC
================================================================================
Источник (релизер): Qobuz
 
Не забывайте говорить Спасибо. Не уходите с раздачи!   
Торрент: Зарегистрирован [21 мар 2017, 01:10] Для скачивания .torrent
необходима регистрация
Или скачать с помощью
MediaGet
Статус:
Проверен
 
.torrent скачан: 2 раз
Хэш: 0c058898d49746f2306f8c7640ca33c5fa5076af
Размер: 852.28 МБ (893 680 064 байт)
Стать Автором раздачи
 
 
Раздал: 100 ГБ
Скачал: 0 байт
Ратио: Seed.
Сообщения: 91291
Зарегистрирован: 09 апр 2015, 23:00


  • Похожие торренты
    Ответы
    Просмотры
    Последнее сообщение

Вернуться в Электронная Музыка (Hi-Res stereo)

Кто сейчас на конференции

Сейчас эту тему просматривают: нет зарегистрированных пользователей и гости: 1

Ресурс не предоставляет электронные версии произведений, а занимается лишь коллекционированием и каталогизацией ссылок, присылаемых и публикуемых на форуме нашими читателями. Если вы являетесь правообладателем какого-либо представленного материала и не желаете чтобы ссылка на него находилась в нашем каталоге, свяжитесь с нами и мы незамедлительно удалим её. Файлы для обмена на трекере предоставлены пользователями сайта, и администрация не несёт ответственности за их содержание. Просьба не заливать файлы, защищенные авторскими правами, а также файлы нелегального содержания!