(House) [WEB] Luv Jam - Nesta Nip EP - 2012, ALAC (tracks+.cue), lossless

 
 Статистика раздачи 
Размер: 127.61 МБ   |  Зарегистрирован: 21 мар 2017, 01:09   |   .torrent скачан: 1 раз
Сидеров: 1  [ 0 байт/сек ]     Личеров: 0  [ 0 байт/сек ]  
  

(House) [WEB] Luv Jam - Nesta Nip EP - 2012, ALAC (tracks+.cue), lossless

Сообщение Lester » 21 мар 2017, 01:09

Luv Jam / Nesta Nip EP

Жанр: House
Носитель: WEB
Страна-производитель диска: US
Год издания: 2012
Издатель (лейбл): Throne Of Blood
Номер по каталогу: TOB 026
Страна исполнителя (группы): UK
Аудио кодек: ALAC (*.m4a)
Тип рипа: tracks+.cue
Программа-конвертер: CueTools
Битрейт аудио: lossless
Продолжительность: 00:26:43
Наличие сканов в содержимом раздачи: нет
Тексты: не требуются
Треклист:
01 Nesta (6:04)
02 Nesta (In Fields Remix) (6:02)
03 Ponciau (7:36)
04 Circle (6:55)
Код: Выделить всё
[CUETools log; Date: 20.03.2017 23:43:16; Version: 2.1.5]
Padded some input files to a frame boundary.
[CTDB TOCID: 2KZKpOYIAlX2tLk1esf8fJht4BA-] disk not present in database.
[AccurateRip ID: 000470ce-0011ee50-2b064304] disk not present in database.

Track Peak [ CRC32  ] [W/O NULL]
 --   96,7 [27004CF1] [48F1C019]
 01   96,7 [BE463C7D] [768ED532]
 02   96,7 [B84C47DA] [8A0B123A]
 03   96,7 [AC0E59FC] [1C4D797E]
 04   96,7 [FCDFD453] [3D014B5F]
Код: Выделить всё
REM COMMENT "CUETools generated dummy CUE sheet"
PERFORMER "Luv Jam"
TITLE "Nesta Nip EP"
REM DATE 2012
REM DISCNUMBER 1
REM TOTALDISCS 2
REM GENRE "House"
FILE "01. Nesta.m4a" WAVE
  TRACK 01 AUDIO
    PERFORMER "Luv Jam"
    TITLE "Nesta"
    INDEX 01 00:00:00
FILE "02. Nesta (In Fields Remix).m4a" WAVE
  TRACK 02 AUDIO
    PERFORMER "Luv Jam"
    TITLE "Nesta (In Fields Remix)"
    INDEX 01 00:00:00
FILE "03. Ponciau.m4a" WAVE
  TRACK 03 AUDIO
    PERFORMER "Luv Jam"
    TITLE "Ponciau"
    INDEX 01 00:00:00
FILE "04. Circle.m4a" WAVE
  TRACK 04 AUDIO
    PERFORMER "Luv Jam"
    TITLE "Circle"
    INDEX 01 00:00:00
 
Не забывайте говорить Спасибо. Не уходите с раздачи!   
Торрент: Зарегистрирован [21 мар 2017, 01:09] Для скачивания .torrent
необходима регистрация
Или скачать с помощью
MediaGet
Статус:
Проверен
 
.torrent скачан: 1 раз
Хэш: dec279c31b96ba6ff9a5dd3de5fecfc79c284da6
Размер: 127.61 МБ (133 810 233 байт)
Стать Автором раздачи
 
 
Раздал: 100 ГБ
Скачал: 0 байт
Ратио: Seed.
Сообщения: 103531
Зарегистрирован: 09 апр 2015, 23:00


  • Похожие торренты
    Ответы
    Просмотры
    Последнее сообщение

Вернуться в Музыка Lossless (ALAC)

Кто сейчас на конференции

Сейчас эту тему просматривают: нет зарегистрированных пользователей и гости: 1

Ресурс не предоставляет электронные версии произведений, а занимается лишь коллекционированием и каталогизацией ссылок, присылаемых и публикуемых на форуме нашими читателями. Если вы являетесь правообладателем какого-либо представленного материала и не желаете чтобы ссылка на него находилась в нашем каталоге, свяжитесь с нами и мы незамедлительно удалим её. Файлы для обмена на трекере предоставлены пользователями сайта, и администрация не несёт ответственности за их содержание. Просьба не заливать файлы, защищенные авторскими правами, а также файлы нелегального содержания!