(Turkish Rap, Rap, Hip-Hop) [CD] Cribb 199 - Examples (EP) - 1995, FLAC (tracks+.cue), lossless

 
 Статистика раздачи 
Размер: 119.98 МБ   |  Зарегистрирован: 21 мар 2017, 00:54   |   .torrent скачан: 0 раз
Сидеров: 2  [ 0 байт/сек ]     Личеров: 1  [ 0 байт/сек ]  
  

(Turkish Rap, Rap, Hip-Hop) [CD] Cribb 199 - Examples (EP) - 1995, FLAC (tracks+.cue), lossless

Сообщение Lester » 21 мар 2017, 00:54

Cribb 199 / Examples (EP)

Жанр: Turkish Rap, Rap, Hip-Hop
Носитель: CD
Год издания: 1995
Аудиокодек: FLAC (*.flac)
Тип рипа: tracks+.cue
Битрейт аудио: lossless
Продолжительность: 00:19:15
Источник (релизер): Cnkr
Наличие сканов в содержимом раздачи: нет
Треклист:
1.Kimse Karişamaz
2.Bosna (Part 2)
3.Anlayın
4.Tief In Mir
Код: Выделить всё
Exact Audio Copy V1.3 from 2. September 2016

EAC extraction logfile from 20. March 2017, 23:56

Cribb 199 / Examples

Used drive  : TSSTcorpCDDVDW SE-208GB   Adapter: 1  ID: 0

Read mode               : Secure
Utilize accurate stream : Yes
Defeat audio cache      : Yes
Make use of C2 pointers : No

Read offset correction                      : 6
Overread into Lead-In and Lead-Out          : No
Fill up missing offset samples with silence : Yes
Delete leading and trailing silent blocks   : No
Null samples used in CRC calculations       : Yes
Used interface                              : Native Win32 interface for Win NT & 2000
Gap handling                                : Appended to previous track

Used output format              : User Defined Encoder
Selected bitrate                : 1024 kBit/s
Quality                         : High
Add ID3 tag                     : No
Command line compressor         : C:\Program Files (x86)\Exact Audio Copy\FLAC\FLAC.EXE
Additional command line options : -6 -V -T "ARTIST=%artist%" -T "TITLE=%title%" -T "ALBUM=%albumtitle%" -T "DATE=%year%" -T "TRACKNUMBER=%tracknr%" -T "GENRE=%genre%" -T "COMMENT=%comment%" -T "BAND=%albuminterpret%" -T "ALBUMARTIST=%albuminterpret%" -T "COMPOSER=%composer%" %haslyrics%--tag-from-file=LYRICS="%lyricsfile%"%haslyrics% -T "DISCNUMBER=%cdnumber%" -T "TOTALDISCS=%totalcds%" -T "TOTALTRACKS=%numtracks%" %hascover%--picture="%coverfile%"%hascover% %source% -o %dest%

TOC of the extracted CD

     Track |   Start  |  Length  | Start sector | End sector
    ---------------------------------------------------------
        1  |  0:00.00 |  4:04.27 |         0    |    18326
        2  |  4:04.27 |  3:53.38 |     18327    |    35839
        3  |  7:57.65 |  6:10.22 |     35840    |    63611
        4  | 14:08.12 |  5:07.08 |     63612    |    86644

Track  1

     Filename D:\Torrent Upload\CD Rip\Cribb 199\Cribb 199 - Examples (EP)\01 Kimse Karişamaz.wav

     Pre-gap length  0:00:02.00

     Peak level 88.2 %
     Extraction speed 0.9 X
     Track quality 99.9 %
     Test CRC 410894F4
     Copy CRC 410894F4
     Track not present in AccurateRip database
     Copy OK

Track  2

     Filename D:\Torrent Upload\CD Rip\Cribb 199\Cribb 199 - Examples (EP)\02 Bosna (Part 2).wav

     Pre-gap length  0:00:02.66

     Peak level 92.8 %
     Extraction speed 1.2 X
     Track quality 100.0 %
     Test CRC A7AC5AF2
     Copy CRC A7AC5AF2
     Track not present in AccurateRip database
     Copy OK

Track  3

     Filename D:\Torrent Upload\CD Rip\Cribb 199\Cribb 199 - Examples (EP)\03 Anlayın.wav

     Peak level 91.9 %
     Extraction speed 1.4 X
     Track quality 100.0 %
     Test CRC 20243D75
     Copy CRC 20243D75
     Track not present in AccurateRip database
     Copy OK

Track  4

     Filename D:\Torrent Upload\CD Rip\Cribb 199\Cribb 199 - Examples (EP)\04 Tief In Mir.wav

     Pre-gap length  0:00:02.52

     Peak level 98.0 %
     Extraction speed 1.4 X
     Track quality 99.9 %
     Test CRC 3BA7C6AA
     Copy CRC 3BA7C6AA
     Track not present in AccurateRip database
     Copy OK

None of the tracks are present in the AccurateRip database

No errors occurred

End of status report

---- CUETools DB Plugin V2.1.6

[CTDB TOCID: SWZumFli1n0c7I6woKagwg8kdvY-] disk not present in database
Submit result: SWZumFli1n0c7I6woKagwg8kdvY- has been uploaded

==== Log checksum 8B7FA61F1C8AEF29DD779D0C61F349C66149E13DF893B34E57C5EAB692360A12 ====
Код: Выделить всё
REM GENRE "Hip Hop"
REM DATE 1995
REM DISCID 2F048304
REM COMMENT "ExactAudioCopy v1.3"
CATALOG 0000000000000
PERFORMER "Cribb 199"
TITLE "Examples"
REM COMPOSER ""
FILE "01 Kimse Karişamaz.wav" WAVE
  TRACK 01 AUDIO
    TITLE "Kimse Karişamaz"
    PERFORMER "Cribb 199"
    REM COMPOSER ""
    INDEX 01 00:00:00
  TRACK 02 AUDIO
    TITLE "Bosna (Part 2)"
    PERFORMER "Cribb 199"
    REM COMPOSER ""
    INDEX 00 04:01:36
FILE "02 Bosna (Part 2).wav" WAVE
    INDEX 01 00:00:00
FILE "03 Anlayın.wav" WAVE
  TRACK 03 AUDIO
    TITLE "Anlayın"
    PERFORMER "Cribb 199"
    REM COMPOSER ""
    INDEX 01 00:00:00
  TRACK 04 AUDIO
    TITLE "Tief In Mir"
    PERFORMER "Cribb 199"
    REM COMPOSER ""
    INDEX 00 06:07:45
FILE "04 Tief In Mir.wav" WAVE
    INDEX 01 00:00:00
 
Не забывайте говорить Спасибо. Не уходите с раздачи!   
Торрент: Зарегистрирован [21 мар 2017, 00:54] Для скачивания .torrent
необходима регистрация
Или скачать с помощью
MediaGet
Статус:
Проверен
 
.torrent скачан: 0 раз
Хэш: 5de9d2c1dc2aaaf55e45141d1b6e34fd67924c1c
Размер: 119.98 МБ (125 805 087 байт)
Стать Автором раздачи
 
 
Раздал: 100 ГБ
Скачал: 0 байт
Ратио: Seed.
Сообщения: 92005
Зарегистрирован: 09 апр 2015, 23:00


  • Похожие торренты
    Ответы
    Просмотры
    Последнее сообщение

Вернуться в Зарубежный Рэп, Хип-Хоп (lossless)

Кто сейчас на конференции

Сейчас эту тему просматривают: нет зарегистрированных пользователей и гости: 1

Ресурс не предоставляет электронные версии произведений, а занимается лишь коллекционированием и каталогизацией ссылок, присылаемых и публикуемых на форуме нашими читателями. Если вы являетесь правообладателем какого-либо представленного материала и не желаете чтобы ссылка на него находилась в нашем каталоге, свяжитесь с нами и мы незамедлительно удалим её. Файлы для обмена на трекере предоставлены пользователями сайта, и администрация не несёт ответственности за их содержание. Просьба не заливать файлы, защищенные авторскими правами, а также файлы нелегального содержания!