(Cool) [CD] Russ Freeman - Trio & Quartet (1952-1959) - 2010, FLAC (tracks+.cue), lossless

 
 Статистика раздачи 
Размер: 344.4 МБ   |  Зарегистрирован: 21 мар 2017, 00:23   |   .torrent скачан: 0 раз
Сидеров: 9  [ 0 байт/сек ]     Личеров: 3  [ 0 байт/сек ]  
  

(Cool) [CD] Russ Freeman - Trio & Quartet (1952-1959) - 2010, FLAC (tracks+.cue), lossless

Сообщение Lester » 21 мар 2017, 00:23

Russ Freeman - Trio & Quartet

Жанр: Cool
Носитель: CD
Страна-производитель диска (релиза): Испания
Год издания: 2010
Издатель (лейбл): Fresh Sound Records
Номер по каталогу: FSR-CD 594
Страна исполнителя (группы): США
Аудиокодек: FLAC (*.flac)
Тип рипа: tracks+.cue
Битрейт аудио: lossless
Продолжительность: 79:46
Источник (релизер): subix5
Наличие сканов в содержимом раздачи: сетевые

Треклист:
01. Lullaby in Rhythm (2:22)
02. East of the Sun (4:13)
03. Steeplechase (3:25)
04. Laugh Cry (2:59)
05. At Last (2:45)
06. You Stepped Out of a Dream (2:44)
07. Yesterday's Gardenias (2:39)
08. Bock's Tops (2:51)
09. Don't Worry 'Bout Me (3:08)
10. Backfield in Motion (2:55)
11. The Eye Opener (3:02)
12. Bojangles of Harlem (2:42)
13. It's a New World (4:42)
14. Blues in the Night (7:25)
15. The Party's Over (3:00)
16. Joey, Joey, Joey (3:42)
17. Woody's Dot (5:07)
18. Namely You (3:39)
19. Love in a Home (3:57)
20. Progress Is the Root of All Evil (3:48)
21. Independent (4:00)
22. Invitation to the Blues (4:41)
Код: Выделить всё
Exact Audio Copy V1.0 beta 3 from 29. August 2011

EAC extraction logfile from 8. March 2017, 19:06

Russ Freeman / Trio & Quartet

Used drive  : ATAPI   DVD A  DH16ABSH   Adapter: 0  ID: 0

Read mode               : Secure
Utilize accurate stream : Yes
Defeat audio cache      : Yes
Make use of C2 pointers : No

Read offset correction                      : 6
Overread into Lead-In and Lead-Out          : No
Fill up missing offset samples with silence : Yes
Delete leading and trailing silent blocks   : No
Null samples used in CRC calculations       : Yes
Used interface                              : Native Win32 interface for Win NT & 2000
Gap handling                                : Appended to previous track

Used output format              : User Defined Encoder
Selected bitrate                : 1024 kBit/s
Quality                         : High
Add ID3 tag                     : No
Command line compressor         : D:\Downloads\flac-1.3.1-win\win64\flac.exe
Additional command line options : -8 -e -p -V -T "ARTIST=%artist%" -T "TITLE=%title%" -T "ALBUM=%albumtitle%" -T "DATE=%year%" -T "TRACKNUMBER=%tracknr%" -T "GENRE=%genre%" -T "PERFORMER=%albuminterpret%" -T "COMPOSER=%composer%" %haslyrics%--tag-from-file=LYRICS="%lyricsfile%"%haslyrics% -T "ALBUMARTIST=%albumartist%" -T "DISCNUMBER=%cdnumber%" -T "TOTALDISCS=%totalcds%" -T "TOTALTRACKS=%numtracks%" -T "COMMENT=%comment%" %source% -o %dest%

TOC of the extracted CD

     Track |   Start  |  Length  | Start sector | End sector
    ---------------------------------------------------------
        1  |  0:00.00 |  2:22.10 |         0    |    10659
        2  |  2:22.10 |  4:13.02 |     10660    |    29636
        3  |  6:35.12 |  3:25.21 |     29637    |    45032
        4  | 10:00.33 |  2:59.27 |     45033    |    58484
        5  | 12:59.60 |  2:45.05 |     58485    |    70864
        6  | 15:44.65 |  2:43.42 |     70865    |    83131
        7  | 18:28.32 |  2:38.49 |     83132    |    95030
        8  | 21:07.06 |  2:50.54 |     95031    |   107834
        9  | 23:57.60 |  3:08.35 |    107835    |   121969
       10  | 27:06.20 |  2:54.38 |    121970    |   135057
       11  | 30:00.58 |  3:02.09 |    135058    |   148716
       12  | 33:02.67 |  2:42.23 |    148717    |   160889
       13  | 35:45.15 |  4:41.46 |    160890    |   182010
       14  | 40:26.61 |  7:24.68 |    182011    |   215378
       15  | 47:51.54 |  3:00.12 |    215379    |   228890
       16  | 50:51.66 |  3:42.05 |    228891    |   245545
       17  | 54:33.71 |  5:07.35 |    245546    |   268605
       18  | 59:41.31 |  3:38.54 |    268606    |   285009
       19  | 63:20.10 |  3:56.53 |    285010    |   302762
       20  | 67:16.63 |  3:47.41 |    302763    |   319828
       21  | 71:04.29 |  4:00.06 |    319829    |   337834
       22  | 75:04.35 |  4:41.08 |    337835    |   358917

Track  1

     Filename D:\My Music\Russ Freeman - Trio & Quartet (2010) {FSR-CD 594} [EAC-FLAC]\01 Lullaby in Rhythm.wav

     Pre-gap length  0:00:02.00

     Peak level 83.1 %
     Extraction speed 1.8 X
     Track quality 100.0 %
     Test CRC B584B40B
     Copy CRC B584B40B
     Accurately ripped (confidence 2)  [3D4898FF]  (AR v2)
     Copy OK

Track  2

     Filename D:\My Music\Russ Freeman - Trio & Quartet (2010) {FSR-CD 594} [EAC-FLAC]\02 East of the Sun.wav

     Pre-gap length  0:00:01.77

     Peak level 75.1 %
     Extraction speed 2.2 X
     Track quality 100.0 %
     Test CRC 90638B3B
     Copy CRC 90638B3B
     Accurately ripped (confidence 2)  [6993E233]  (AR v2)
     Copy OK

Track  3

     Filename D:\My Music\Russ Freeman - Trio & Quartet (2010) {FSR-CD 594} [EAC-FLAC]\03 Steeplechase.wav

     Pre-gap length  0:00:01.77

     Peak level 92.7 %
     Extraction speed 2.3 X
     Track quality 100.0 %
     Test CRC 5AE0F911
     Copy CRC 5AE0F911
     Accurately ripped (confidence 2)  [136972CA]  (AR v2)
     Copy OK

Track  4

     Filename D:\My Music\Russ Freeman - Trio & Quartet (2010) {FSR-CD 594} [EAC-FLAC]\04 Laugh Cry.wav

     Pre-gap length  0:00:01.77

     Peak level 68.7 %
     Extraction speed 2.4 X
     Track quality 100.0 %
     Test CRC DC2AB2AD
     Copy CRC DC2AB2AD
     Accurately ripped (confidence 2)  [4ED9BE57]  (AR v2)
     Copy OK

Track  5

     Filename D:\My Music\Russ Freeman - Trio & Quartet (2010) {FSR-CD 594} [EAC-FLAC]\05 At Last.wav

     Pre-gap length  0:00:01.77

     Peak level 72.8 %
     Extraction speed 2.5 X
     Track quality 100.0 %
     Test CRC CCFAD433
     Copy CRC CCFAD433
     Accurately ripped (confidence 2)  [D0C6F9C3]  (AR v2)
     Copy OK

Track  6

     Filename D:\My Music\Russ Freeman - Trio & Quartet (2010) {FSR-CD 594} [EAC-FLAC]\06 You Stepped Out of a Dream.wav

     Pre-gap length  0:00:01.77

     Peak level 82.2 %
     Extraction speed 2.5 X
     Track quality 100.0 %
     Test CRC 4F0CFAE0
     Copy CRC 4F0CFAE0
     Accurately ripped (confidence 2)  [090D6916]  (AR v2)
     Copy OK

Track  7

     Filename D:\My Music\Russ Freeman - Trio & Quartet (2010) {FSR-CD 594} [EAC-FLAC]\07 Yesterday's Gardenias.wav

     Pre-gap length  0:00:01.77

     Peak level 79.2 %
     Extraction speed 2.6 X
     Track quality 100.0 %
     Test CRC A794E29A
     Copy CRC A794E29A
     Accurately ripped (confidence 2)  [9DF10A8B]  (AR v2)
     Copy OK

Track  8

     Filename D:\My Music\Russ Freeman - Trio & Quartet (2010) {FSR-CD 594} [EAC-FLAC]\08 Bock's Tops.wav

     Pre-gap length  0:00:01.77

     Peak level 86.6 %
     Extraction speed 2.8 X
     Track quality 100.0 %
     Test CRC 3643CC4C
     Copy CRC 3643CC4C
     Accurately ripped (confidence 2)  [CB362485]  (AR v2)
     Copy OK

Track  9

     Filename D:\My Music\Russ Freeman - Trio & Quartet (2010) {FSR-CD 594} [EAC-FLAC]\09 Don't Worry 'Bout Me.wav

     Pre-gap length  0:00:01.77

     Peak level 73.2 %
     Extraction speed 2.9 X
     Track quality 100.0 %
     Test CRC 40745F8D
     Copy CRC 40745F8D
     Accurately ripped (confidence 2)  [BA177118]  (AR v2)
     Copy OK

Track 10

     Filename D:\My Music\Russ Freeman - Trio & Quartet (2010) {FSR-CD 594} [EAC-FLAC]\10 Backfield in Motion.wav

     Pre-gap length  0:00:01.77

     Peak level 78.9 %
     Extraction speed 2.9 X
     Track quality 100.0 %
     Test CRC B688165F
     Copy CRC B688165F
     Accurately ripped (confidence 2)  [7D858532]  (AR v2)
     Copy OK

Track 11

     Filename D:\My Music\Russ Freeman - Trio & Quartet (2010) {FSR-CD 594} [EAC-FLAC]\11 The Eye Opener.wav

     Pre-gap length  0:00:01.77

     Peak level 95.5 %
     Extraction speed 3.0 X
     Track quality 100.0 %
     Test CRC A4C03382
     Copy CRC A4C03382
     Accurately ripped (confidence 2)  [40056922]  (AR v2)
     Copy OK

Track 12

     Filename D:\My Music\Russ Freeman - Trio & Quartet (2010) {FSR-CD 594} [EAC-FLAC]\12 Bojangles of Harlem.wav

     Pre-gap length  0:00:01.77

     Peak level 83.6 %
     Extraction speed 2.0 X
     Track quality 99.9 %
     Test CRC 8E26F94F
     Copy CRC 8E26F94F
     Accurately ripped (confidence 2)  [227B308C]  (AR v2)
     Copy OK

Track 13

     Filename D:\My Music\Russ Freeman - Trio & Quartet (2010) {FSR-CD 594} [EAC-FLAC]\13 It's a New World.wav

     Pre-gap length  0:00:01.77

     Peak level 81.4 %
     Extraction speed 3.4 X
     Track quality 100.0 %
     Test CRC B53C6FB8
     Copy CRC B53C6FB8
     Accurately ripped (confidence 2)  [1660EB7B]  (AR v2)
     Copy OK

Track 14

     Filename D:\My Music\Russ Freeman - Trio & Quartet (2010) {FSR-CD 594} [EAC-FLAC]\14 Blues in the Night.wav

     Pre-gap length  0:00:01.77

     Peak level 95.0 %
     Extraction speed 3.8 X
     Track quality 100.0 %
     Test CRC 81B0EEBE
     Copy CRC 81B0EEBE
     Accurately ripped (confidence 2)  [CA9B847D]  (AR v2)
     Copy OK

Track 15

     Filename D:\My Music\Russ Freeman - Trio & Quartet (2010) {FSR-CD 594} [EAC-FLAC]\15 The Party's Over.wav

     Pre-gap length  0:00:01.77

     Peak level 89.1 %
     Extraction speed 3.5 X
     Track quality 100.0 %
     Test CRC 32C48746
     Copy CRC 32C48746
     Accurately ripped (confidence 2)  [164586BF]  (AR v2)
     Copy OK

Track 16

     Filename D:\My Music\Russ Freeman - Trio & Quartet (2010) {FSR-CD 594} [EAC-FLAC]\16 Joey, Joey, Joey.wav

     Pre-gap length  0:00:01.77

     Peak level 81.8 %
     Extraction speed 2.6 X
     Track quality 99.9 %
     Test CRC B4DF506C
     Copy CRC B4DF506C
     Accurately ripped (confidence 2)  [63D6B311]  (AR v2)
     Copy OK

Track 17

     Filename D:\My Music\Russ Freeman - Trio & Quartet (2010) {FSR-CD 594} [EAC-FLAC]\17 Woody's Dot.wav

     Pre-gap length  0:00:01.77

     Peak level 85.7 %
     Extraction speed 4.0 X
     Track quality 100.0 %
     Test CRC 79652D99
     Copy CRC 79652D99
     Accurately ripped (confidence 2)  [B267245F]  (AR v2)
     Copy OK

Track 18

     Filename D:\My Music\Russ Freeman - Trio & Quartet (2010) {FSR-CD 594} [EAC-FLAC]\18 Namely You.wav

     Pre-gap length  0:00:01.77

     Peak level 88.4 %
     Extraction speed 3.9 X
     Track quality 100.0 %
     Test CRC D319F8AF
     Copy CRC D319F8AF
     Accurately ripped (confidence 2)  [BC5CC1C1]  (AR v2)
     Copy OK

Track 19

     Filename D:\My Music\Russ Freeman - Trio & Quartet (2010) {FSR-CD 594} [EAC-FLAC]\19 Love in a Home.wav

     Pre-gap length  0:00:01.77

     Peak level 95.5 %
     Extraction speed 2.9 X
     Track quality 99.9 %
     Test CRC AFB52A93
     Copy CRC AFB52A93
     Accurately ripped (confidence 2)  [74D66AD8]  (AR v2)
     Copy OK

Track 20

     Filename D:\My Music\Russ Freeman - Trio & Quartet (2010) {FSR-CD 594} [EAC-FLAC]\20 Progress is the Root of All Evil.wav

     Pre-gap length  0:00:01.77

     Peak level 95.5 %
     Extraction speed 4.1 X
     Track quality 100.0 %
     Test CRC 52F6607F
     Copy CRC 52F6607F
     Accurately ripped (confidence 2)  [496157BD]  (AR v2)
     Copy OK

Track 21

     Filename D:\My Music\Russ Freeman - Trio & Quartet (2010) {FSR-CD 594} [EAC-FLAC]\21 Independent.wav

     Pre-gap length  0:00:01.77

     Peak level 99.3 %
     Extraction speed 4.2 X
     Track quality 100.0 %
     Test CRC 1F442D6B
     Copy CRC 1F442D6B
     Accurately ripped (confidence 2)  [C2959683]  (AR v2)
     Copy OK

Track 22

     Filename D:\My Music\Russ Freeman - Trio & Quartet (2010) {FSR-CD 594} [EAC-FLAC]\22 Invitation to the Blues.wav

     Pre-gap length  0:00:01.77

     Peak level 85.1 %
     Extraction speed 4.4 X
     Track quality 100.0 %
     Test CRC 6FF3A8F6
     Copy CRC 6FF3A8F6
     Accurately ripped (confidence 2)  [54103829]  (AR v2)
     Copy OK

All tracks accurately ripped

No errors occurred

End of status report

---- CUETools DB Plugin V2.1.3

[CTDB TOCID: erthv9sydXxnKZfQDaLMc_mYvw8-] disk not present in database, Submit result: erthv9sydXxnKZfQDaLMc_mYvw8- has been uploaded

==== Log checksum 1295DFB727662F5C3C15AF6A2B9BFEE53F3313B2B1BFEBA62616342B433B72D3 ====
Код: Выделить всё
REM GENRE Jazz
REM DATE 2010
REM DISCID 4012B116
REM COMMENT "ExactAudioCopy v1.0b3"
PERFORMER "Russ Freeman"
TITLE "Trio & Quartet"
FILE "01 - Lullaby in Rhythm.wav" WAVE
  TRACK 01 AUDIO
    TITLE "Lullaby in Rhythm"
    PERFORMER "Russ Freeman"
    INDEX 01 00:00:00
  TRACK 02 AUDIO
    TITLE "East of the Sun"
    PERFORMER "Russ Freeman"
    INDEX 00 02:20:27
FILE "02 - East of the Sun.wav" WAVE
    INDEX 01 00:00:00
  TRACK 03 AUDIO
    TITLE "Steeplechase"
    PERFORMER "Russ Freeman"
    INDEX 00 04:11:19
FILE "03 - Steeplechase.wav" WAVE
    INDEX 01 00:00:00
  TRACK 04 AUDIO
    TITLE "Laugh Cry"
    PERFORMER "Russ Freeman"
    INDEX 00 03:23:38
FILE "04 - Laugh Cry.wav" WAVE
    INDEX 01 00:00:00
  TRACK 05 AUDIO
    TITLE "At Last"
    PERFORMER "Russ Freeman"
    INDEX 00 02:57:44
FILE "05 - At Last.wav" WAVE
    INDEX 01 00:00:00
  TRACK 06 AUDIO
    TITLE "You Stepped Out of a Dream"
    PERFORMER "Russ Freeman"
    INDEX 00 02:43:22
FILE "06 - You Stepped Out of a Dream.wav" WAVE
    INDEX 01 00:00:00
  TRACK 07 AUDIO
    TITLE "Yesterday's Gardenias"
    PERFORMER "Russ Freeman"
    INDEX 00 02:41:59
FILE "07 - Yesterday's Gardenias.wav" WAVE
    INDEX 01 00:00:00
  TRACK 08 AUDIO
    TITLE "Bock's Tops"
    PERFORMER "Russ Freeman"
    INDEX 00 02:36:66
FILE "08 - Bock's Tops.wav" WAVE
    INDEX 01 00:00:00
  TRACK 09 AUDIO
    TITLE "Don't Worry 'Bout Me"
    PERFORMER "Russ Freeman"
    INDEX 00 02:48:71
FILE "09 - Don't Worry 'Bout Me.wav" WAVE
    INDEX 01 00:00:00
  TRACK 10 AUDIO
    TITLE "Backfield in Motion"
    PERFORMER "Russ Freeman"
    INDEX 00 03:06:52
FILE "10 - Backfield in Motion.wav" WAVE
    INDEX 01 00:00:00
  TRACK 11 AUDIO
    TITLE "The Eye Opener"
    PERFORMER "Russ Freeman"
    INDEX 00 02:52:55
FILE "11 - The Eye Opener.wav" WAVE
    INDEX 01 00:00:00
  TRACK 12 AUDIO
    TITLE "Bojangles of Harlem"
    PERFORMER "Russ Freeman"
    INDEX 00 03:00:26
FILE "12 - Bojangles of Harlem.wav" WAVE
    INDEX 01 00:00:00
  TRACK 13 AUDIO
    TITLE "It's a New World"
    PERFORMER "Russ Freeman"
    INDEX 00 02:40:40
FILE "13 - It's a New World.wav" WAVE
    INDEX 01 00:00:00
  TRACK 14 AUDIO
    TITLE "Blues in the Night"
    PERFORMER "Russ Freeman"
    INDEX 00 04:39:63
FILE "14 - Blues in the Night.wav" WAVE
    INDEX 01 00:00:00
  TRACK 15 AUDIO
    TITLE "The Party's Over"
    PERFORMER "Russ Freeman"
    INDEX 00 07:23:10
FILE "15 - The Party's Over.wav" WAVE
    INDEX 01 00:00:00
  TRACK 16 AUDIO
    TITLE "Joey, Joey, Joey"
    PERFORMER "Russ Freeman"
    INDEX 00 02:58:29
FILE "16 - Joey, Joey, Joey.wav" WAVE
    INDEX 01 00:00:00
  TRACK 17 AUDIO
    TITLE "Woody's Dot"
    PERFORMER "Russ Freeman"
    INDEX 00 03:40:22
FILE "17 - Woody's Dot.wav" WAVE
    INDEX 01 00:00:00
  TRACK 18 AUDIO
    TITLE "Namely You"
    PERFORMER "Russ Freeman"
    INDEX 00 05:05:52
FILE "18 - Namely You.wav" WAVE
    INDEX 01 00:00:00
  TRACK 19 AUDIO
    TITLE "Love in a Home"
    PERFORMER "Russ Freeman"
    INDEX 00 03:36:71
FILE "19 - Love in a Home.wav" WAVE
    INDEX 01 00:00:00
  TRACK 20 AUDIO
    TITLE "Progress Is the Root of All Evil"
    PERFORMER "Russ Freeman"
    INDEX 00 03:54:70
FILE "20 - Progress Is the Root of All Evil.wav" WAVE
    INDEX 01 00:00:00
  TRACK 21 AUDIO
    TITLE "Independent"
    PERFORMER "Russ Freeman"
    INDEX 00 03:45:58
FILE "21 - Independent.wav" WAVE
    INDEX 01 00:00:00
  TRACK 22 AUDIO
    TITLE "Invitation to the Blues"
    PERFORMER "Russ Freeman"
    INDEX 00 03:58:23
FILE "22 - Invitation to the Blues.wav" WAVE
    INDEX 01 00:00:00
Код: Выделить всё
[CUETools log; Date: 21.03.2017 0:07:12; Version: 2.1.5]
[CTDB TOCID: erthv9sydXxnKZfQDaLMc_mYvw8-] found.
Track | CTDB Status
  1   | (1/1) Accurately ripped
  2   | (1/1) Accurately ripped
  3   | (1/1) Accurately ripped
  4   | (1/1) Accurately ripped
  5   | (1/1) Accurately ripped
  6   | (1/1) Accurately ripped
  7   | (1/1) Accurately ripped
  8   | (1/1) Accurately ripped
  9   | (1/1) Accurately ripped
 10   | (1/1) Accurately ripped
 11   | (1/1) Accurately ripped
 12   | (1/1) Accurately ripped
 13   | (1/1) Accurately ripped
 14   | (1/1) Accurately ripped
 15   | (1/1) Accurately ripped
 16   | (1/1) Accurately ripped
 17   | (1/1) Accurately ripped
 18   | (1/1) Accurately ripped
 19   | (1/1) Accurately ripped
 20   | (1/1) Accurately ripped
 21   | (1/1) Accurately ripped
 22   | (1/1) Accurately ripped
[AccurateRip ID: 003a2b05-03b58176-4012b116] found.
Track   [  CRC   |   V2   ] Status
 01     [f7a8d5a0|3d4898ff] (0+2/2) Accurately ripped
 02     [d632907a|6993e233] (0+2/2) Accurately ripped
 03     [3d4e5b37|136972ca] (0+2/2) Accurately ripped
 04     [5d3ab3aa|4ed9be57] (0+2/2) Accurately ripped
 05     [3036c99d|d0c6f9c3] (0+2/2) Accurately ripped
 06     [8ad9154b|090d6916] (0+2/2) Accurately ripped
 07     [306489b0|9df10a8b] (0+2/2) Accurately ripped
 08     [c9539107|cb362485] (0+2/2) Accurately ripped
 09     [5c839ea7|ba177118] (0+2/2) Accurately ripped
 10     [362e314d|7d858532] (0+2/2) Accurately ripped
 11     [159f4b8a|40056922] (0+2/2) Accurately ripped
 12     [1067d80b|227b308c] (0+2/2) Accurately ripped
 13     [484667f6|1660eb7b] (0+2/2) Accurately ripped
 14     [e95198f6|ca9b847d] (0+2/2) Accurately ripped
 15     [061a60b7|164586bf] (0+2/2) Accurately ripped
 16     [6c478d0d|63d6b311] (0+2/2) Accurately ripped
 17     [38557b6d|b267245f] (0+2/2) Accurately ripped
 18     [d6f46f4a|bc5cc1c1] (0+2/2) Accurately ripped
 19     [f1cf9789|74d66ad8] (0+2/2) Accurately ripped
 20     [3e0e2d39|496157bd] (0+2/2) Accurately ripped
 21     [e153e98b|c2959683] (0+2/2) Accurately ripped
 22     [ae97c9d4|54103829] (0+2/2) Accurately ripped

Track Peak [ CRC32  ] [W/O NULL] [  LOG   ]
 --   99,3 [0E958109] [EF8AF385]
 01   83,1 [B584B40B] [EFD8A83E]   CRC32
 02   75,1 [90638B3B] [E57E39B5]   CRC32
 03   92,7 [5AE0F911] [5D9D90FE]   CRC32
 04   68,7 [DC2AB2AD] [1D7546B2]   CRC32
 05   72,8 [CCFAD433] [38053AD7]   CRC32
 06   82,2 [4F0CFAE0] [C6DAFCC8]   CRC32
 07   79,2 [A794E29A] [D659EC20]   CRC32
 08   86,6 [3643CC4C] [E6CBCF1E]   CRC32
 09   73,2 [40745F8D] [063BCC46]   CRC32
 10   78,9 [B688165F] [896FD690]   CRC32
 11   95,5 [A4C03382] [3CF35ABA]   CRC32
 12   83,6 [8E26F94F] [5FA9F370]   CRC32
 13   81,4 [B53C6FB8] [93D39073]   CRC32
 14   95,0 [81B0EEBE] [661D1CE4]   CRC32
 15   89,1 [32C48746] [B4E3C0BA]   CRC32
 16   81,8 [B4DF506C] [88C170E6]   CRC32
 17   85,7 [79652D99] [E3793E05]   CRC32
 18   88,4 [D319F8AF] [A0A7582B]   CRC32
 19   95,5 [AFB52A93] [3D035006]   CRC32
 20   95,5 [52F6607F] [174EF3F8]   CRC32
 21   99,3 [1F442D6B] [E02EBB35]   CRC32
 22   85,1 [6FF3A8F6] [FD9C1C88]   CRC32
While other West Coast jazz pianists during the Fifties and early Sixties cut their shareand some perhaps more than thatof albums for a variety of recording firms, Russ Freemans output of records under his own name was nowhere near enough to reflect his enormous talent.

Thanks to his involvement in the groups of such standard bearers as Howard McGhee, Dexter Gordon, Art Pepper and Wardell Gray, he developed rapidly and when Chet Baker made his first quartet recordings in December 1952, he chose Freeman as pianist, composer and musical director. Freemans reputation also earned him a place with the Lighthouse All-Stars, Shorty Rogers Giants and, for ten years from 1955, with Shelly Manne and his Men. This CD is dedicated to the memory of Russ Freeman (1926-2002), an extraordinary but too often underrated jazz pianist who deserves a place among the greatest.
#1-3:
Russ Freeman - piano
Bob Whitlock - bass
Bobby White - drums
Recorded at Gold Star Studios, Hollywood on December 15, 1952.

#4-11:
Russ Freeman - piano
Joe Mondragon - bass
Shelly Manne - drums
Recorded at Radio Recorders, Hollywood on December 27 (#4-6) and 28 (#7-11), 1953.

#12-14:
Bud Shank - alto saxophone, flute
Russ Freeman - piano
Carson Smith - bass
Shelly Manne - drums
Recorded at Music Box Theater, Hollywood on February 19, 1956.

#15-21:
Russ Freeman - piano
Monty Budwig - bass
Shelly Manne - drums
Stu Williamson - trumpet (#18-21)
Recorded at Radio Recorders, Hollywood on August 12, 1957.

#22:
Russ Freeman - piano
Billy Bean - guitar
Monty Budwig - bass
Mel Lewis - drums
Recorded at Sound Enterprises, Hollywood on March 26, 1959.
 
Не забывайте говорить Спасибо. Не уходите с раздачи!   
Торрент: Зарегистрирован [21 мар 2017, 00:23] Для скачивания .torrent
необходима регистрация
Или скачать с помощью
MediaGet
Статус:
Проверен
 
.torrent скачан: 0 раз
Хэш: fd5992f3e834bb29ce01cc4d933e7715f8c8c972
Размер: 344.4 МБ (361 128 756 байт)
Стать Автором раздачи
 
 
Раздал: 100 ГБ
Скачал: 0 байт
Ратио: Seed.
Сообщения: 103303
Зарегистрирован: 09 апр 2015, 23:00


  • Похожие торренты
    Ответы
    Просмотры
    Последнее сообщение

Вернуться в Mainstream Jazz, Cool (lossless)

Кто сейчас на конференции

Сейчас эту тему просматривают: нет зарегистрированных пользователей и гости: 1

Ресурс не предоставляет электронные версии произведений, а занимается лишь коллекционированием и каталогизацией ссылок, присылаемых и публикуемых на форуме нашими читателями. Если вы являетесь правообладателем какого-либо представленного материала и не желаете чтобы ссылка на него находилась в нашем каталоге, свяжитесь с нами и мы незамедлительно удалим её. Файлы для обмена на трекере предоставлены пользователями сайта, и администрация не несёт ответственности за их содержание. Просьба не заливать файлы, защищенные авторскими правами, а также файлы нелегального содержания!