(Classical) Johann Simon Mayr - Saffo - Brown, Schafer, Yun, Papenmeyer; Members of the Bavarian State Opera Chorus, Simon Mayr Chorus, Concerto de Bassus, Franz Hauk - 2016, FLAC (image+.cue) lossless

 
 Статистика раздачи 
Размер: 536.62 МБ   |  Зарегистрирован: 20 мар 2017, 22:03   |   .torrent скачан: 2 раз
Сидеров: 17  [ 0 байт/сек ]     Личеров: 4  [ 0 байт/сек ]  
  

(Classical) Johann Simon Mayr - Saffo - Brown, Schafer, Yun, Papenmeyer; Members of the Bavarian State Opera Chorus, Simon Mayr Chorus, Concerto de Bassus, Franz Hauk - 2016, FLAC (image+.cue) lossless

Сообщение Lester » 20 мар 2017, 22:03

Johann Simon Mayr - Saffo - Brown, Schäfer, Yun, Papenmeyer; Members of the Bavarian State Opera Chorus, Simon Mayr Chorus, Concerto de Bassus, Franz Hauk

Жанр: Classical
Год издания диска: 2016
Издатель (лейбл): Naxos
Номер по каталогу: 8.660367-68
Дата записи: 2014
Аудиокодек: FLAC
Тип рипа: image+.cue
Битрейт аудио: lossless
Продолжительность: 2:01:24
Источник: собственный рип
Наличие сканов в содержимом раздачи: да

Треклист:

Johann Simon Mayr (1763-1845)

Saffo
ossia I riti d’Apollo Leucadio

Dramma per musica in due atti
Libretto by Antonio Simeone Sografi (1759-1818)

CD1
[1] Sinfonia
[2]-[25] Atto Primo

CD2
[1]-[29] Atto Secondo

Исполнители:
Saffo (Sappho) Andrea Lauren Brown soprano
Faone (Phaon) Jaewon Yun soprano
Alceo (Alcaeus) Markus Schäfer tenor
Amfizione (The Pythia) Marie Sande Papenmeyer mezzo-soprano
Laodamia Katharina Ruckgaber soprano
Euricleo (Euricles) Daniel Preis tenor

Members of the Bavarian State Opera Chorus
Simon Mayr Chorus
Concerto de Bassus
Franz Hauk
harpsichord and conductor
Код: Выделить всё
Exact Audio Copy V1.1 from 23. June 2015

EAC extraction logfile from 29. April 2016, 21:08

Simon Mayr Chorus, Concerto de Bassus, Franz Hauk / Mayr - Saffo - CD1

Used drive  : HL-DT-STDVDRAM GU70N   Adapter: 1  ID: 0

Read mode               : Secure
Utilize accurate stream : Yes
Defeat audio cache      : Yes
Make use of C2 pointers : No

Read offset correction                      : 48
Overread into Lead-In and Lead-Out          : No
Fill up missing offset samples with silence : Yes
Delete leading and trailing silent blocks   : No
Null samples used in CRC calculations       : Yes
Used interface                              : Native Win32 interface for Win NT & 2000

Used output format              : User Defined Encoder
Selected bitrate                : 128 kBit/s
Quality                         : High
Add ID3 tag                     : No
Command line compressor         : C:\Program Files (x86)\Exact Audio Copy\Flac\flac.exe
Additional command line options : -V -8 -T "Date=%year%" -T "Genre=%genre%" %source%

TOC of the extracted CD

     Track |   Start  |  Length  | Start sector | End sector
    ---------------------------------------------------------
        1  |  0:00.00 |  5:25.05 |         0    |    24379
        2  |  5:25.05 |  4:23.70 |     24380    |    44174
        3  |  9:49.00 |  0:52.71 |     44175    |    48145
        4  | 10:41.71 |  1:42.31 |     48146    |    55826
        5  | 12:24.27 |  1:11.66 |     55827    |    61217
        6  | 13:36.18 |  1:59.39 |     61218    |    70181
        7  | 15:35.57 |  0:10.23 |     70182    |    70954
        8  | 15:46.05 |  1:10.15 |     70955    |    76219
        9  | 16:56.20 |  2:28.25 |     76220    |    87344
       10  | 19:24.45 |  0:53.15 |     87345    |    91334
       11  | 20:17.60 |  5:46.21 |     91335    |   117305
       12  | 26:04.06 |  0:27.36 |    117306    |   119366
       13  | 26:31.42 |  2:00.56 |    119367    |   128422
       14  | 28:32.23 |  2:30.47 |    128423    |   139719
       15  | 31:02.70 |  0:54.67 |    139720    |   143836
       16  | 31:57.62 |  1:46.62 |    143837    |   151848
       17  | 33:44.49 |  4:55.57 |    151849    |   174030
       18  | 38:40.31 |  1:21.22 |    174031    |   180127
       19  | 40:01.53 |  2:03.09 |    180128    |   189361
       20  | 42:04.62 |  2:17.30 |    189362    |   199666
       21  | 44:22.17 |  2:32.01 |    199667    |   211067
       22  | 46:54.18 |  4:32.48 |    211068    |   231515
       23  | 51:26.66 |  1:09.53 |    231516    |   236743
       24  | 52:36.44 |  1:21.00 |    236744    |   242818
       25  | 53:57.44 |  6:56.31 |    242819    |   274049

Range status and errors

Selected range

     Filename C:\temp\Naxos_8.660367-68 - Mayr - Saffo\CD1\Mayr - Saffo - CD1.wav

     Peak level 100.0 %
     Extraction speed 5.1 X
     Range quality 99.9 %
     Test CRC F87FC63D
     Copy CRC F87FC63D
     Copy OK

No errors occurred

AccurateRip summary

Track  1  accurately ripped (confidence 1)  [83C3CEE3]  (AR v2)
Track  2  accurately ripped (confidence 1)  [AC9AD1F2]  (AR v2)
Track  3  accurately ripped (confidence 1)  [F68590DF]  (AR v2)
Track  4  accurately ripped (confidence 1)  [A28E6ED5]  (AR v2)
Track  5  accurately ripped (confidence 1)  [CFFAB750]  (AR v2)
Track  6  accurately ripped (confidence 1)  [6E17627E]  (AR v2)
Track  7  accurately ripped (confidence 1)  [8C70773B]  (AR v2)
Track  8  accurately ripped (confidence 1)  [C18AF7FA]  (AR v2)
Track  9  accurately ripped (confidence 1)  [2B2CB699]  (AR v2)
Track 10  accurately ripped (confidence 1)  [9C880ED4]  (AR v2)
Track 11  accurately ripped (confidence 1)  [AD2DB6D0]  (AR v2)
Track 12  accurately ripped (confidence 1)  [8E12E67D]  (AR v2)
Track 13  accurately ripped (confidence 1)  [7D0D5D9C]  (AR v2)
Track 14  accurately ripped (confidence 1)  [C280032D]  (AR v2)
Track 15  accurately ripped (confidence 1)  [AC5140A6]  (AR v2)
Track 16  accurately ripped (confidence 1)  [B2F393D5]  (AR v2)
Track 17  accurately ripped (confidence 1)  [69F662AF]  (AR v2)
Track 18  accurately ripped (confidence 1)  [C893227B]  (AR v2)
Track 19  accurately ripped (confidence 1)  [5B4A654C]  (AR v2)
Track 20  accurately ripped (confidence 1)  [3676B6EC]  (AR v2)
Track 21  accurately ripped (confidence 1)  [D7C2C961]  (AR v2)
Track 22  accurately ripped (confidence 1)  [24B890C3]  (AR v2)
Track 23  accurately ripped (confidence 1)  [E2918B58]  (AR v2)
Track 24  accurately ripped (confidence 1)  [99059FA5]  (AR v2)
Track 25  accurately ripped (confidence 1)  [F915EAA4]  (AR v2)

All tracks accurately ripped

End of status report

==== Log checksum CE7FE452FC5F390B4E7C2D45B09665DE33405AC1FC1283A3E38AC5C363A33A92 ====
Код: Выделить всё
Exact Audio Copy V1.1 from 23. June 2015

EAC extraction logfile from 29. April 2016, 21:35

Simon Mayr Chorus, Concerto de Bassus, Franz Hauk / Mayr - Saffo - Atto II

Used drive  : HL-DT-STDVDRAM GU70N   Adapter: 1  ID: 0

Read mode               : Secure
Utilize accurate stream : Yes
Defeat audio cache      : Yes
Make use of C2 pointers : No

Read offset correction                      : 48
Overread into Lead-In and Lead-Out          : No
Fill up missing offset samples with silence : Yes
Delete leading and trailing silent blocks   : No
Null samples used in CRC calculations       : Yes
Used interface                              : Native Win32 interface for Win NT & 2000

Used output format              : User Defined Encoder
Selected bitrate                : 128 kBit/s
Quality                         : High
Add ID3 tag                     : No
Command line compressor         : C:\Program Files (x86)\Exact Audio Copy\Flac\flac.exe
Additional command line options : -V -8 -T "Date=%year%" -T "Genre=%genre%" %source%

TOC of the extracted CD

     Track |   Start  |  Length  | Start sector | End sector
    ---------------------------------------------------------
        1  |  0:00.00 |  2:21.56 |         0    |    10630
        2  |  2:21.56 |  0:45.61 |     10631    |    14066
        3  |  3:07.42 |  1:41.07 |     14067    |    21648
        4  |  4:48.49 |  2:06.48 |     21649    |    31146
        5  |  6:55.22 |  0:37.42 |     31147    |    33963
        6  |  7:32.64 |  2:19.57 |     33964    |    44445
        7  |  9:52.46 |  0:38.32 |     44446    |    47327
        8  | 10:31.03 |  1:28.54 |     47328    |    53981
        9  | 11:59.57 |  2:51.00 |     53982    |    66806
       10  | 14:50.57 |  0:52.52 |     66807    |    70758
       11  | 15:43.34 |  0:51.22 |     70759    |    74605
       12  | 16:34.56 |  4:00.68 |     74606    |    92673
       13  | 20:35.49 |  2:14.24 |     92674    |   102747
       14  | 22:49.73 |  1:58.54 |    102748    |   111651
       15  | 24:48.52 |  5:05.08 |    111652    |   134534
       16  | 29:53.60 |  0:53.33 |    134535    |   138542
       17  | 30:47.18 |  0:47.42 |    138543    |   142109
       18  | 31:34.60 |  1:32.67 |    142110    |   149076
       19  | 33:07.52 |  0:40.15 |    149077    |   152091
       20  | 33:47.67 |  1:38.63 |    152092    |   159504
       21  | 35:26.55 |  2:35.03 |    159505    |   171132
       22  | 38:01.58 |  4:44.47 |    171133    |   192479
       23  | 42:46.30 |  0:54.58 |    192480    |   196587
       24  | 43:41.13 |  3:18.55 |    196588    |   211492
       25  | 46:59.68 |  1:25.04 |    211493    |   217871
       26  | 48:24.72 |  3:28.44 |    217872    |   233515
       27  | 51:53.41 |  5:12.15 |    233516    |   256930
       28  | 57:05.56 |  0:38.15 |    256931    |   259795
       29  | 57:43.71 |  2:42.04 |    259796    |   271949

Range status and errors

Selected range

     Filename C:\temp\Naxos_8.660367-68 - Mayr - Saffo\CD2\Mayr - Saffo - CD2.wav

     Peak level 90.8 %
     Extraction speed 5.1 X
     Range quality 100.0 %
     Test CRC 5DA66521
     Copy CRC 5DA66521
     Copy OK

No errors occurred

AccurateRip summary

Track  1  accurately ripped (confidence 1)  [704C5E50]  (AR v2)
Track  2  accurately ripped (confidence 1)  [52927DD9]  (AR v2)
Track  3  accurately ripped (confidence 1)  [58FCF4D0]  (AR v2)
Track  4  accurately ripped (confidence 1)  [E57122A8]  (AR v2)
Track  5  accurately ripped (confidence 1)  [61BBBA15]  (AR v2)
Track  6  accurately ripped (confidence 1)  [D1433914]  (AR v2)
Track  7  accurately ripped (confidence 1)  [3567D119]  (AR v2)
Track  8  accurately ripped (confidence 1)  [B063EEFF]  (AR v2)
Track  9  accurately ripped (confidence 1)  [BBB93AC4]  (AR v2)
Track 10  accurately ripped (confidence 1)  [B58C87B8]  (AR v2)
Track 11  accurately ripped (confidence 1)  [B0621FE8]  (AR v2)
Track 12  accurately ripped (confidence 1)  [0F3E41E3]  (AR v2)
Track 13  accurately ripped (confidence 1)  [424AE21C]  (AR v2)
Track 14  accurately ripped (confidence 1)  [AF73E827]  (AR v2)
Track 15  accurately ripped (confidence 1)  [E06E7842]  (AR v2)
Track 16  accurately ripped (confidence 1)  [FCE7EAC4]  (AR v2)
Track 17  accurately ripped (confidence 1)  [D0D75A85]  (AR v2)
Track 18  accurately ripped (confidence 1)  [37660B89]  (AR v2)
Track 19  accurately ripped (confidence 1)  [FE909C55]  (AR v2)
Track 20  accurately ripped (confidence 1)  [E971EBA1]  (AR v2)
Track 21  accurately ripped (confidence 1)  [D21C2068]  (AR v2)
Track 22  accurately ripped (confidence 1)  [9FA02399]  (AR v2)
Track 23  accurately ripped (confidence 1)  [9BA5FEE5]  (AR v2)
Track 24  accurately ripped (confidence 1)  [E358370D]  (AR v2)
Track 25  accurately ripped (confidence 1)  [7747611B]  (AR v2)
Track 26  accurately ripped (confidence 1)  [93EC7F5B]  (AR v2)
Track 27  accurately ripped (confidence 1)  [C410E466]  (AR v2)
Track 28  accurately ripped (confidence 1)  [D61A4FE5]  (AR v2)
Track 29  accurately ripped (confidence 1)  [2B1DC63B]  (AR v2)

All tracks accurately ripped

End of status report

==== Log checksum 618C4FC58DAE5511350E3C37F4018AB89CA07950D425CFA4A69AAAE6D03A3DDB ====
 
Не забывайте говорить Спасибо. Не уходите с раздачи!   
Торрент: Зарегистрирован [20 мар 2017, 22:03] Для скачивания .torrent
необходима регистрация
Или скачать с помощью
MediaGet
Статус:
Проверен
 
.torrent скачан: 2 раз
Хэш: f5c357c3d8d2cf8c7a1fc6d679d2f0220352f92d
Размер: 536.62 МБ (562 690 734 байт)
Стать Автором раздачи
 
 
Раздал: 100 ГБ
Скачал: 0 байт
Ратио: Seed.
Сообщения: 104280
Зарегистрирован: 09 апр 2015, 23:00


  • Похожие торренты
    Ответы
    Просмотры
    Последнее сообщение

Вернуться в Опера (lossless)

Ресурс не предоставляет электронные версии произведений, а занимается лишь коллекционированием и каталогизацией ссылок, присылаемых и публикуемых на форуме нашими читателями. Если вы являетесь правообладателем какого-либо представленного материала и не желаете чтобы ссылка на него находилась в нашем каталоге, свяжитесь с нами и мы незамедлительно удалим её. Файлы для обмена на трекере предоставлены пользователями сайта, и администрация не несёт ответственности за их содержание. Просьба не заливать файлы, защищенные авторскими правами, а также файлы нелегального содержания!
cron