(Pop) [CD] Паша Христова - Една българска роза - Златни хитове. - 2006, FLAC (tracks+.cue), lossless

 
 Статистика раздачи 
Размер: 380.72 МБ   |  Зарегистрирован: 20 мар 2017, 19:43   |   .torrent скачан: 0 раз
Сидеров: 2  [ 0 байт/сек ]     Личеров: 1  [ 0 байт/сек ]  
  

(Pop) [CD] Паша Христова - Една българска роза - Златни хитове. - 2006, FLAC (tracks+.cue), lossless

Сообщение Lester » 20 мар 2017, 19:43

Паша Христова / Една българска роза - Златни хитове.

Жанр: Pop
Носитель: CD
Страна-производитель диска (релиза): Болгария
Год издания: 2006
Издатель (лейбл): "Ню медия груп"
Номер по каталогу: не указан
Страна исполнителя (группы): Болгария
Аудиокодек: FLAC (*.flac)
Тип рипа: tracks+.cue
Битрейт аудио: lossless
Продолжительность: 00:51:10.08
Источник (релизер): собственный рип
Наличие сканов в содержимом раздачи: да
Замечание: К торента приложен буклет из сканированных изображений - в виде электронной книги в формате PDF.
https://www.youtube.com/watch?v=Nu-ZCDiEW7c
Треклист:
01.Нека този миг да спре - б.т.Милчо Спасов, ар.Николай Арабаджиев
02.Една българска роза - м.Димитър Вълчев, т.Найден Вълчев, ар.Дечо Таралежков
03.Нежност - б.т.Богомил Гудев, ар.Николай Арабаджиев
04.Този дивен свят - б.т.Богомил Гудев, ар.Николай Арабаджиев
05.Яворова пролет - с Мария Нейкова и Мими Иванова - м.ар.Светозар Русинов, т.Димитър Точев
06.Потпури от оперетни мелодии - дует с Борис Гуджунов - м.т.Йосиф Цанков, ар.Вили Казасян
07.Когато си отидеш - б.т.Богомил Гудев, ар.Николай Арабаджиев
08.Бяла песен - м.Димитър Вълчев, т.Петър Караангов, ар.Дечо Таралежков
09.Повей, ветре - м.Йосиф Цанков, т.Димитър Василев, ар.Николай Арабаджиев
10.Щастливи заедно - ар.Николай Куюмджиев
11.Спри, време - м.Александър Йосифов, т.Ана Георгиева, ар.Константин Драгнев
12.Янтра - м.ар.Морис Аладжем, т.Димитър Ценов
13.Остани - м.ар.Николай Арабаджиев, т.Димитър Василев
14.Блика ден (Свърши се) - м.Канафора, б.т.Милчо Спасов
Код: Выделить всё
Exact Audio Copy V1.1 from 23. June 2015

EAC extraction logfile from 13. March 2017, 20:01

Паша Христова / Една българска роза - Златни хитове

Used drive  : PLEXTOR DVDR   PX-L890SA   Adapter: 1  ID: 1

Read mode               : Secure
Utilize accurate stream : Yes
Defeat audio cache      : Yes
Make use of C2 pointers : No

Read offset correction                      : 6
Overread into Lead-In and Lead-Out          : No
Fill up missing offset samples with silence : Yes
Delete leading and trailing silent blocks   : No
Null samples used in CRC calculations       : Yes
Used interface                              : Native Win32 interface for Win NT & 2000
Gap handling                                : Appended to previous track

Used output format              : User Defined Encoder
Selected bitrate                : 896 kBit/s
Quality                         : High
Add ID3 tag                     : No
Command line compressor         : C:\Program Files\Exact Audio Copy\Flac\flac.exe
Additional command line options : -V -8 -T "Genre=%genre%" -T "Artist=%artist%" -T "Title=%title%" -T "Album=%albumtitle%" -T "Date=%year%" -T "Tracknumber=%tracknr%" -T "Comment=%comment%" %source%

TOC of the extracted CD

     Track |   Start  |  Length  | Start sector | End sector
    ---------------------------------------------------------
        1  |  0:00.00 |  3:25.06 |         0    |    15380
        2  |  3:25.06 |  2:49.30 |     15381    |    28085
        3  |  6:14.36 |  3:09.33 |     28086    |    42293
        4  |  9:23.69 |  3:05.44 |     42294    |    56212
        5  | 12:29.38 |  3:55.28 |     56213    |    73865
        6  | 16:24.66 |  6:09.10 |     73866    |   101550
        7  | 22:34.01 |  2:43.41 |    101551    |   113816
        8  | 25:17.42 |  3:13.70 |    113817    |   128361
        9  | 28:31.37 |  3:27.51 |    128362    |   143937
       10  | 31:59.13 |  2:41.64 |    143938    |   156076
       11  | 34:41.02 |  4:57.20 |    156077    |   178371
       12  | 39:38.22 |  4:16.00 |    178372    |   197571
       13  | 43:54.22 |  3:29.27 |    197572    |   213273
       14  | 47:23.49 |  3:46.34 |    213274    |   230257

Track  1

     Filename E:\Зарубежная поп-музыка\Паша Христова - Една българска роза 2006\01 Нека този миг да спре.wav

     Pre-gap length  0:00:02.00

     Peak level 99.9 %
     Extraction speed 4.3 X
     Track quality 100.0 %
     Test CRC 84297A6F
     Copy CRC 84297A6F
     Cannot be verified as accurate (confidence 2)  [82767D10], AccurateRip returned [752C9E6D]  (AR v2)
     Copy OK

Track  2

     Filename E:\Зарубежная поп-музыка\Паша Христова - Една българска роза 2006\02 Една българска роза.wav

     Peak level 99.4 %
     Extraction speed 4.4 X
     Track quality 100.0 %
     Test CRC A53D8AFE
     Copy CRC A53D8AFE
     Cannot be verified as accurate (confidence 2)  [EB56AA5B], AccurateRip returned [B5D22D76]  (AR v2)
     Copy OK

Track  3

     Filename E:\Зарубежная поп-музыка\Паша Христова - Една българска роза 2006\03 Нежност.wav

     Pre-gap length  0:00:00.01

     Peak level 99.6 %
     Extraction speed 4.7 X
     Track quality 100.0 %
     Test CRC 235834C2
     Copy CRC 235834C2
     Cannot be verified as accurate (confidence 2)  [95228A72], AccurateRip returned [2272F9D1]  (AR v2)
     Copy OK

Track  4

     Filename E:\Зарубежная поп-музыка\Паша Христова - Една българска роза 2006\04 Този дивен свят.wav

     Peak level 99.4 %
     Extraction speed 4.1 X
     Track quality 99.9 %
     Test CRC ED84734D
     Copy CRC ED84734D
     Cannot be verified as accurate (confidence 2)  [C657C140], AccurateRip returned [264ED843]  (AR v2)
     Copy OK

Track  5

     Filename E:\Зарубежная поп-музыка\Паша Христова - Една българска роза 2006\05 Яворова пролет.wav

     Peak level 99.6 %
     Extraction speed 4.4 X
     Track quality 99.9 %
     Test CRC 14EC8F69
     Copy CRC 14EC8F69
     Cannot be verified as accurate (confidence 2)  [F55EAAC5], AccurateRip returned [2459976D]  (AR v2)
     Copy OK

Track  6

     Filename E:\Зарубежная поп-музыка\Паша Христова - Една българска роза 2006\06 Потпури от оперетни мелодии.wav

     Peak level 99.9 %
     Extraction speed 5.3 X
     Track quality 100.0 %
     Test CRC D6BA6587
     Copy CRC D6BA6587
     Cannot be verified as accurate (confidence 2)  [B8D5DAC7], AccurateRip returned [BB31D30E]  (AR v2)
     Copy OK

Track  7

     Filename E:\Зарубежная поп-музыка\Паша Христова - Една българска роза 2006\07 Когато си отидеш.wav

     Peak level 99.9 %
     Extraction speed 4.8 X
     Track quality 100.0 %
     Test CRC F02F4C45
     Copy CRC F02F4C45
     Cannot be verified as accurate (confidence 2)  [19D8C1FD], AccurateRip returned [1328C889]  (AR v2)
     Copy OK

Track  8

     Filename E:\Зарубежная поп-музыка\Паша Христова - Една българска роза 2006\08 Бяла песен.wav

     Peak level 99.9 %
     Extraction speed 4.9 X
     Track quality 100.0 %
     Test CRC 12C8EA05
     Copy CRC 12C8EA05
     Cannot be verified as accurate (confidence 2)  [8ACC031C], AccurateRip returned [AF1AEB31]  (AR v2)
     Copy OK

Track  9

     Filename E:\Зарубежная поп-музыка\Паша Христова - Една българска роза 2006\09 Повей, ветре.wav

     Pre-gap length  0:00:00.67

     Peak level 99.9 %
     Extraction speed 5.0 X
     Track quality 100.0 %
     Test CRC DE99101B
     Copy CRC DE99101B
     Cannot be verified as accurate (confidence 2)  [518E5353], AccurateRip returned [8E27B61F]  (AR v2)
     Copy OK

Track 10

     Filename E:\Зарубежная поп-музыка\Паша Христова - Една българска роза 2006\10 Щастливи заедно.wav

     Peak level 99.7 %
     Extraction speed 4.6 X
     Track quality 100.0 %
     Test CRC 08FF0A21
     Copy CRC 08FF0A21
     Cannot be verified as accurate (confidence 2)  [CE51B5BA], AccurateRip returned [9CD5094E]  (AR v2)
     Copy OK

Track 11

     Filename E:\Зарубежная поп-музыка\Паша Христова - Една българска роза 2006\11 Спри, време.wav

     Peak level 99.9 %
     Extraction speed 5.1 X
     Track quality 100.0 %
     Test CRC 1D9DDE76
     Copy CRC 1D9DDE76
     Cannot be verified as accurate (confidence 2)  [CBAE1BA4], AccurateRip returned [C476227A]  (AR v2)
     Copy OK

Track 12

     Filename E:\Зарубежная поп-музыка\Паша Христова - Една българска роза 2006\12 Янтра.wav

     Peak level 99.9 %
     Extraction speed 4.9 X
     Track quality 100.0 %
     Test CRC E7308B02
     Copy CRC E7308B02
     Cannot be verified as accurate (confidence 2)  [1F58963F], AccurateRip returned [E3DA0CD7]  (AR v2)
     Copy OK

Track 13

     Filename E:\Зарубежная поп-музыка\Паша Христова - Една българска роза 2006\13 Остани.wav

     Peak level 99.9 %
     Extraction speed 5.0 X
     Track quality 100.0 %
     Test CRC 7E5BC41A
     Copy CRC 7E5BC41A
     Cannot be verified as accurate (confidence 2)  [18FC1B23], AccurateRip returned [7721059A]  (AR v2)
     Copy OK

Track 14

     Filename E:\Зарубежная поп-музыка\Паша Христова - Една българска роза 2006\14 Блика ден (Свърши се).wav

     Peak level 99.9 %
     Extraction speed 4.9 X
     Track quality 100.0 %
     Test CRC DB633809
     Copy CRC DB633809
     Cannot be verified as accurate (confidence 2)  [02DF1A57], AccurateRip returned [5EEA71EF]  (AR v2)
     Copy OK

No tracks could be verified as accurate
You may have a different pressing from the one(s) in the database

No errors occurred

End of status report

---- CUETools DB Plugin V2.1.6

[CTDB TOCID: LcgexH2yrF0jw9Da86wpCeSgaZc-] found
Submit result: LcgexH2yrF0jw9Da86wpCeSgaZc- has been submitted
Track | CTDB Status
  1   | (3/3) Accurately ripped
  2   | (2/3) Accurately ripped
  3   | (0/3) No match
  4   | (0/3) No match
  5   | (0/3) No match
  6   | (0/3) No match
  7   | (3/3) Accurately ripped
  8   | (3/3) Accurately ripped
  9   | (3/3) Accurately ripped
 10   | (3/3) Accurately ripped
 11   | (3/3) Accurately ripped
 12   | (3/3) Accurately ripped
 13   | (3/3) Accurately ripped
 14   | (3/3) Accurately ripped

==== Log checksum E93DD4E892D3D0746910FBF182E01C09E68CC63973F5FCF6958270AB07DFEC09 ====
Код: Выделить всё
REM GENRE Pop
REM DATE 2006
REM DISCID C50BFE0E
REM COMMENT "ExactAudioCopy v1.1"
PERFORMER "Паша Христова"
TITLE "Една българска роза - Златни хитове"
FILE "01 Нека този миг да спре.wav" WAVE
  TRACK 01 AUDIO
    TITLE "Нека този миг да спре"
    PERFORMER "б.т.Милчо Спасов, ар.Николай Арабаджиев"
    INDEX 01 00:00:00
FILE "02 Една българска роза.wav" WAVE
  TRACK 02 AUDIO
    TITLE "Една българска роза"
    PERFORMER "м.Димитър Вълчев, т.Найден Вълчев, ар.Дечо Таралежков"
    INDEX 01 00:00:00
  TRACK 03 AUDIO
    TITLE "Нежност"
    PERFORMER "б.т.Богомил Гудев, ар.Николай Арабаджиев"
    INDEX 00 02:49:29
FILE "03 Нежност.wav" WAVE
    INDEX 01 00:00:00
FILE "04 Този дивен свят.wav" WAVE
  TRACK 04 AUDIO
    TITLE "Този дивен свят"
    PERFORMER "б.т.Богомил Гудев, ар.Николай Арабаджиев"
    INDEX 01 00:00:00
FILE "05 Яворова пролет.wav" WAVE
  TRACK 05 AUDIO
    TITLE "Яворова пролет"
    PERFORMER "с Мария Нейкова и Мими Иванова - м.ар.Светозар Русинов, т.Димитър Точев"
    INDEX 01 00:00:00
FILE "06 Потпури от оперетни мелодии.wav" WAVE
  TRACK 06 AUDIO
    TITLE "Потпури от оперетни мелодии"
    PERFORMER "дует с Борис Гуджунов - м.т.Йосиф Цанков, ар.Вили Казасян"
    INDEX 01 00:00:00
FILE "07 Когато си отидеш.wav" WAVE
  TRACK 07 AUDIO
    TITLE "Когато си отидеш"
    PERFORMER "б.т.Богомил Гудев, ар.Николай Арабаджиев"
    INDEX 01 00:00:00
FILE "08 Бяла песен.wav" WAVE
  TRACK 08 AUDIO
    TITLE "Бяла песен"
    PERFORMER "м.Димитър Вълчев, т.Петър Караангов, ар.Дечо Таралежков"
    INDEX 01 00:00:00
  TRACK 09 AUDIO
    TITLE "Повей, ветре"
    PERFORMER "м.Йосиф Цанков, т.Димитър Василев, ар.Николай Арабаджиев"
    INDEX 00 03:13:03
FILE "09 Повей, ветре.wav" WAVE
    INDEX 01 00:00:00
FILE "10 Щастливи заедно.wav" WAVE
  TRACK 10 AUDIO
    TITLE "Щастливи заедно"
    PERFORMER "ар.Николай Куюмджиев"
    INDEX 01 00:00:00
FILE "11 Спри, време.wav" WAVE
  TRACK 11 AUDIO
    TITLE "Спри, време"
    PERFORMER "м.Александър Йосифов, т.Ана Георгиева, ар.Константин Драгнев"
    INDEX 01 00:00:00
FILE "12 Янтра.wav" WAVE
  TRACK 12 AUDIO
    TITLE "Янтра"
    PERFORMER "м.ар.Морис Аладжем, т.Димитър Ценов"
    INDEX 01 00:00:00
FILE "13 Остани.wav" WAVE
  TRACK 13 AUDIO
    TITLE "Остани"
    PERFORMER "м.ар.Николай Арабаджиев, т.Димитър Василев"
    INDEX 01 00:00:00
FILE "14 Блика ден (Свърши се).wav" WAVE
  TRACK 14 AUDIO
    TITLE "Блика ден (Свърши се)"
    PERFORMER "м.Канафора, б.т.Милчо Спасов"
    INDEX 01 00:00:00
Парашкева Христова Стефанова е родена на 16 юли 1946 г. в София, но израства в кв. Княжево. Интересен факт е, че корените ѝ са от село Варана, община Левски, където живели баба ѝ и дядо ѝ. Родителите ѝ се местят в София и там се ражда Паша. След завършване на гимназия започва работа като чертожничка в „Балканкар“, София. Завършва Школата за естрадни певци и постъпва в Ансамбъла на строителни войски като солистка. Нейният първи успех е на Фестивала на забавната песен в Сочи, Русия, през 1967 г., където е удостоена със златен медал и първа награда.

През 1967 г., заедно с Борис Гуджунов пее като солистка в „Оркестър София“ – тогава един от най-популярните състави в българската музика. Двамата заедно пеят по концерти и гастроли в Русия, Чехия, Унгария, Сърбия, Германия. За своите пет творчески години записва около 60 песни за фонда на Радиото.

Печели международна слава и много награди от конкурси, между които награда на фестивала „Златният елен“ в Брашов, Румъния, първа награда за изпълнение заедно с Мария Нейкова и Мими Иванова „Яворова пролет“ (по музика на Светозар Русинов) на радиоконкурса „Пролет“. През 1970 г. се представя на фестивала "Златният Орфей” и получава голямата награда за песента „Повей, ветре“ (по музика на Йосиф Цанков) и първата награда за „Една българска роза“ (по музика на Димитър Вълчев). През 1971 г. Паша Христова получава Голямата награда за изпълнители на Международния фестивал в Сопот, Полша, за песента си „Ах, този дивен свят“. Това е едно от най-големите международни признания за български поп певец.

На 21 декември 1971 г. загива при самолетна катастрофа на летище „София“. Причините за катастрофата и преките виновни и не са точно установени.




 
Не забывайте говорить Спасибо. Не уходите с раздачи!   
Торрент: Зарегистрирован [20 мар 2017, 19:43] Для скачивания .torrent
необходима регистрация
Или скачать с помощью
MediaGet
Статус:
Проверен
 
.torrent скачан: 0 раз
Хэш: eefdb596edfd47963ca187f2035b728d995e0298
Размер: 380.72 МБ (399 216 109 байт)
Стать Автором раздачи
 
 
Раздал: 100 ГБ
Скачал: 0 байт
Ратио: Seed.
Сообщения: 103446
Зарегистрирован: 09 апр 2015, 23:00


  • Похожие торренты
    Ответы
    Просмотры
    Последнее сообщение

Вернуться в Зарубежная музыка других жанров (lossless)

Кто сейчас на конференции

Сейчас эту тему просматривают: нет зарегистрированных пользователей и гости: 1

Ресурс не предоставляет электронные версии произведений, а занимается лишь коллекционированием и каталогизацией ссылок, присылаемых и публикуемых на форуме нашими читателями. Если вы являетесь правообладателем какого-либо представленного материала и не желаете чтобы ссылка на него находилась в нашем каталоге, свяжитесь с нами и мы незамедлительно удалим её. Файлы для обмена на трекере предоставлены пользователями сайта, и администрация не несёт ответственности за их содержание. Просьба не заливать файлы, защищенные авторскими правами, а также файлы нелегального содержания!