Гедда Габлер / Hedda Gabler (Иво ван Хове / Ivo van Hove) [2017, Великобритания, драма, HDTVRip] National Theatre

 
 Статистика раздачи 
Размер: 2.18 ГБ   |  Зарегистрирован: 20 мар 2017, 19:12   |   .torrent скачан: 2 раз
Сидеров: 341  [ 0 байт/сек ]     Личеров: 3  [ 0 байт/сек ]  
  

Гедда Габлер / Hedda Gabler (Иво ван Хове / Ivo van Hove) [2017, Великобритания, драма, HDTVRip] National Theatre

Сообщение Lester » 20 мар 2017, 19:12

Гедда Габлер / Hedda Gabler

Название театра: National Theatre
Страна
: Великобритания
Жанр: драма
Год выпуска: 2017
Продолжительность: 02:21:59
Перевод: Субтитры - amrita
Cубтитры: русские
Оригинальная аудиодорожка: английский

Режиссёр: Иво ван Хове / Ivo van Hove

В ролях: Кайл Соллер, Рут Уилсон, Кейт Дюшен, Эва Магьяр, Рэйф Сполл, Чаквуди Ивуджи, Шинейд Мэттьюс

Описание: Гедда Габлер, прежде всего, дочь своего отца, генерала Габлера, который, по-видимому, в отличие от всех прочих окружающих ее мужчин, был незаурядным человеком. Она бы хотела стать такой, как он. Но женская несвобода мешает ей: не только в широком социальном контексте — сфере, куда ее бессознательно тянет, но и в частном, личном. (wiki)

Качество видео:
Формат видео
: AVI

Видео: 704x400 (1.76:1), 25 fps, XviD build 73 ~1745 kbps avg, 0.25 bit/pixel
Аудио: 48 kHz, AC3 Dolby Digital, 3/2 (L,C,R,l,r) + LFE ch, ~448 kbps

249
00:29:07,994 --> 00:29:11,777
Я хотела бы узнать о вас.
Расскажите о вашей женитьбе.

250
00:29:13,307 --> 00:29:17,741
- Лучше не надо.
- Мы же старые школьные подруги!

251
00:29:18,307 --> 00:29:25,491
Да, но вы были на пару лет старше, и я...

252
00:29:25,839 --> 00:29:29,353
Честно говоря, я вас боялась тогда.

253
00:29:29,762 --> 00:29:31,637
- Вы боялись?
- Да, очень.

254
00:29:32,428 --> 00:29:36,376
Проходя мимо по лестнице, вы
каждый раз дёргали меня за волосы.

255
00:29:37,203 --> 00:29:41,969
- Я? Нет.
- А однажды грозились поджечь их.

256
00:29:44,224 --> 00:29:48,906
- Я уверена: это было лишь буйное ребячество.
- Наверное, я не умела распознать его.

257
00:29:51,077 --> 00:29:56,422
В то время мы вращались в разных
слоях общества. Да и сейчас тоже.

258
00:29:56,991 --> 00:30:01,037
Но теперь мы ведём задушевный
разговор о нашем общем прошлом.

259
00:30:04,145 --> 00:30:09,284
Думаю, что вы неверно помните наши отношения.
Раньше мы могли довериться друг другу.

260
00:30:09,641 --> 00:30:11,250
И я не сомневаюсь, что мы
называли друг друга по имени.

261
00:30:12,871 --> 00:30:17,735
- Нет, по имени не называли.
- Так давай отныне называть.

262
00:30:19,150 --> 00:30:25,196
- Мы же подруги, да?
- Я не привыкла к такой доброте.

263
00:30:26,298 --> 00:30:29,971
Теперь я для тебя снова Гедда?
А ты для меня - милая Фреа.
General
Complete name : H:\Hedda.Gabler.2017.hdtvrip_[2.18]_[teko]\Hedda.Gabler.2017.hdtvrip_[2.18].avi
Format : AVI
Format/Info : Audio Video Interleave
Format profile : OpenDML
File size : 2.18 GiB
Duration : 2h 21mn
Overall bit rate : 2 201 Kbps
Writing application : VirtualDubMod 1.5.10.3 | www.virtualdub-fr.org || (build 2550/release)
Writing library : VirtualDubMod build 2550/release

Video
ID : 0
Format : MPEG-4 Visual
Format profile : Advanced Simple@L5
Format settings, BVOP : 2
Format settings, QPel : No
Format settings, GMC : No warppoints
Format settings, Matrix : Custom
Codec ID : XVID
Codec ID/Hint : XviD
Duration : 2h 21mn
Bit rate : 1 740 Kbps
Width : 704 pixels
Height : 400 pixels
Display aspect ratio : 16:9
Frame rate : 25.000 fps
Color space : YUV
Chroma subsampling : 4:2:0
Bit depth : 8 bits
Scan type : Progressive
Compression mode : Lossy
Bits/(Pixel*Frame) : 0.247
Stream size : 1.73 GiB (79%)
Writing library : XviD 73

Audio
ID : 1
Format : AC-3
Format/Info : Audio Coding 3
Mode extension : CM (complete main)
Format settings, Endianness : Big
Codec ID : 2000
Duration : 2h 21mn
Bit rate mode : Constant
Bit rate : 448 Kbps
Channel(s) : 6 channels
Channel positions : Front: L C R, Side: L R, LFE
Sampling rate : 48.0 KHz
Frame rate : 31.250 fps (1536 spf)
Compression mode : Lossy
Delay relative to video : 500ms
Stream size : 455 MiB (20%)
Alignment : Split accross interleaves
Interleave, duration : 40 ms (1.00 video frame)
Interleave, preload duratio : 500 ms
Релиз группы:


 
Не забывайте говорить Спасибо. Не уходите с раздачи!   
Торрент: Зарегистрирован [20 мар 2017, 19:12] Для скачивания .torrent
необходима регистрация
Или скачать с помощью
MediaGet
Статус:
Проверен
 
.torrent скачан: 2 раз
Хэш: 5b6e907e0723db3fb51bd280492d054946c4d6b9
Размер: 2.18 ГБ (2 344 028 613 байт)
Стать Автором раздачи
 
 
Раздал: 100 ГБ
Скачал: 0 байт
Ратио: Seed.
Сообщения: 103531
Зарегистрирован: 09 апр 2015, 23:00


  • Похожие торренты
    Ответы
    Просмотры
    Последнее сообщение

Вернуться в Театр

Кто сейчас на конференции

Сейчас эту тему просматривают: нет зарегистрированных пользователей и гости: 1

Ресурс не предоставляет электронные версии произведений, а занимается лишь коллекционированием и каталогизацией ссылок, присылаемых и публикуемых на форуме нашими читателями. Если вы являетесь правообладателем какого-либо представленного материала и не желаете чтобы ссылка на него находилась в нашем каталоге, свяжитесь с нами и мы незамедлительно удалим её. Файлы для обмена на трекере предоставлены пользователями сайта, и администрация не несёт ответственности за их содержание. Просьба не заливать файлы, защищенные авторскими правами, а также файлы нелегального содержания!