Первый после Бога (2005) DVDRip-AVC

 
 Статистика раздачи 
Размер: 1.82 ГБ   |  Зарегистрирован: 20 мар 2017, 07:25   |   .torrent скачан: 2346 раз
Сидеров: 48  [ 0 байт/сек ]     Личеров: 15  [ 0 байт/сек ]  
  

Первый после Бога (2005) DVDRip-AVC

Сообщение apple2000 » 20 мар 2017, 07:25

Информация о фильме
Название: Первый после Бога
Оригинальное название: Первый после Бога
Год выхода: 2005
Жанр: Боевик, драма, военный
Режиссер: Василий Чигинский
В ролях: Дмитрий Орлов, Владимир Гостюхин, Нина Русланова, Михаил Гомиашвили, Ирина Бьерклунд, Юрий Степанов, Виктор Сухоруков, Сергей Горобченко, Елизавета Боярская, Сергей Рубеко, Виталий Абдулов

О фильме:
Фильм, основанный на фактах биографии легендарного капитана-подводника Александра Маринеско, которого Гитлер объявил своим "врагом номер один". Действие картины разворачивается в 1944 году. Капитан Маринин, одержавший самые громкие победы в истории советского подводного флота, становится мишенью для родных спецслужб, которые не простили ему ни его "непролетарского" происхождения, ни влюбленности в шведскую подданную…



Выпущено: Россия, Фонд Михаила Калатозова
Продолжительность: 01:39:52
Озвучивание: Оригинальное
Субтитры: нет

Файл:
Качество: DVDRip-AVC (DVD-9)
Формат: MKV
Видео: 1008x548, 25 fps, ~2175 kbps
Аудио: 48 kHz, AC3 Dolby Digital, 3/2 (L,C,R,l,r) + LFE ch, 384.00 kbps

General
Unique ID : 85803170207841127768909832462041993794 (0x408D16E855F9B80F4A0AF80F5F81D242)
Complete name : F:FILMSПервый после Бога.(2005).DVDRIP-AVC.[-=DoMiNo=-].mkv
Format : Matroska
Format version : Version 4 / Version 2
File size : 1.82 GiB
Duration : 1 h 39 min
Overall bit rate : 2 611 kb/s
Movie name : Первый после Бога
Deion : Так на боевых кораблях называют командира. Только в судьбе боевого русского офицера, капитана подводной лодки времён 2-ой Мировой, могли переплестись события этого фильма…
Writing application : XviD4PSP 7.0.366 DAILY
Writing library : Lavf57.41.100 / Lavf57.41.100
Attachments : poster.jpg
ACTORS : Дмитрий Орлов, Михаил Гомиашвили, Владимир Гостюхин, Елизавета Боярская, Ирина Бьёрклунд, Сергей Горобченко, Юрий Степанов, Виктор Сухоруков, Нина Русланова, Сергей Рубеко, Дмитрий Рудков, Виталий Абдулов, Петр Ступин, Екатерина Вуличенко, Андрей Лавров, Дмитрий Сутырин, Сергей Фролов, Дмитрий Тихонов, Александр Соловьев, Евгений Карпов, Валентин Кулагин, Александр Шатохин, Светлана Лебедева, Борис Хасанов, Андрей Пирогов, Михаил Терентьев, Татьяна Веденеева, Елена Бондарева-Репина, Дмитрий Лебедев, Светлана Акимова, Павел Поляков, Александр Соловьев, Рустам Эргашев, Ольга Белова, Сергей Куценко
COMPOSER : Дато Евгенидзе
COUNTRY : Россия
DATE : 2005
DIRECTOR : Василий Чигинский
ENCODING_INFO : DVD > MKV / MPEG2 > X264 CRF 18.0 Произвольный / AC3 > COPY Безопасное
GENRE : боевик, драма, военный
HD_VIDEO : 1
IMDB_RATING : 5.40
ITUNEXTC : ru-movie|16+|375|
MEDIA_TYPE : 9
PRODUCER : Сергей Боханов, Андрей Бондаренко, Сергей Фикс, Михаил Калатозишвили, Владислав Розин, Сергей Шумаков
RATING : 5.833
SYNOPSIS : Так на боевых кораблях называют командира. Только в судьбе боевого русского офицера, капитана подводной лодки времён 2-ой Мировой, могли переплестись события этого фильма…
WRITER : Илья Авраменко, Игорь Евсюков

Video
ID : 1
Format : AVC
Format/Info : Advanced Video Codec
Format profile : High@L4.1
Format settings, CABAC : Yes
Format settings, ReFrames : 12 frames
Codec ID : V_MPEG4/ISO/AVC
Duration : 1 h 39 min
Bit rate : 2 175 kb/s
Width : 1 008 pixels
Height : 548 pixels
Display aspect ratio : 1.85:1
Frame rate mode : Constant
Frame rate : 25.000 FPS
Color space : YUV
Chroma subsampling : 4:2:0
Bit depth : 8 bits
Scan type : Progressive
Bits/(Pixel*Frame) : 0.157
Stream size : 1.52 GiB (83%)
Title : RIP_BY_-=DoMiNo=-
Writing library : x264 core 148 r2762M 90a61ec
Encoding settings : cabac=1 / ref=12 / deblock=1:-3:-3 / analyse=0x3:0x133 / me=umh / subme=11 / psy=1 / psy_rd=1.00:0.10 / mixed_ref=1 / me_range=48 / chroma_me=1 / trellis=2 / 8x8dct=1 / cqm=0 / deadzone=21,11 / fast_pskip=0 / chroma_qp_offset=-3 / threads=9 / lookahead_threads=2 / sliced_threads=0 / nr=0 / decimate=1 / interlaced=0 / bluray_compat=0 / constrained_intra=0 / bframes=11 / b_pyramid=2 / b_adapt=2 / b_bias=0 / direct=3 / weightb=1 / open_gop=0 / weightp=2 / keyint=250 / keyint_min=25 / scenecut=40 / intra_refresh=0 / rc=crf / mbtree=0 / crf=18.0 / qcomp=0.60 / qpmin=0 / qpmax=69 / qpstep=4 / ip_ratio=1.40 / pb_ratio=1.30 / aq=1:1.00
Default : Yes
Forced : No
DURATION : 01:39:52.080000000

Audio
ID : 2
Format : AC-3
Format/Info : Audio Coding 3
Format settings, Endianness : Big
Codec ID : A_AC3
Duration : 1 h 39 min
Bit rate mode : Constant
Bit rate : 384 kb/s
Channel(s) : 6 channels
Channel positions : Front: L C R, Side: L R, LFE
Sampling rate : 48.0 kHz
Frame rate : 31.250 FPS (1536 spf)
Bit depth : 16 bits
Compression mode : Lossy
Delay relative to video : -80 ms
Stream size : 274 MiB (15%)
Language : Russian
Service kind : Complete Main
Default : Yes
Forced : No
DURATION : 01:39:52.000000000

Menu
00:00:00.000 : :Глава 1
00:07:36.120 : :Глава 2
00:16:21.480 : :Глава 3
00:26:50.800 : :Глава 4
00:40:11.800 : :Глава 5
00:48:44.000 : :Глава 6
00:54:54.480 : :Глава 7
01:05:11.400 : :Глава 8
01:13:38.360 : :Глава 9
01:21:07.719 : :Глава 10
01:22:49.480 : :Глава 11
01:26:57.440 : :Глава 12
01:35:34.959 : :Глава 13
01:39:51.639 : :Глава 14
 
Не забывайте говорить Спасибо. Не уходите с раздачи!   
Торрент: Зарегистрирован [20 мар 2017, 07:25] Для скачивания .torrent
необходима регистрация
Или скачать с помощью
MediaGet
Статус:
Проверен
 
.torrent скачан: 2346 раз
Хэш: af4e8f55f97b1e0cd0a3e7c822728cc8ee705eb6
Размер: 1.82 ГБ (1 955 334 491 байт)
Стать Автором раздачи
 
 
Раздал: 0 байт
Скачал: 0 байт
Ратио: Inf.
Сообщения: 26614
Зарегистрирован: 05 окт 2014, 15:23


  • Похожие торренты
    Ответы
    Просмотры
    Последнее сообщение

Вернуться в Отечественные фильмы 2001-2005 года

Кто сейчас на конференции

Сейчас эту тему просматривают: нет зарегистрированных пользователей и гости: 1

Ресурс не предоставляет электронные версии произведений, а занимается лишь коллекционированием и каталогизацией ссылок, присылаемых и публикуемых на форуме нашими читателями. Если вы являетесь правообладателем какого-либо представленного материала и не желаете чтобы ссылка на него находилась в нашем каталоге, свяжитесь с нами и мы незамедлительно удалим её. Файлы для обмена на трекере предоставлены пользователями сайта, и администрация не несёт ответственности за их содержание. Просьба не заливать файлы, защищенные авторскими правами, а также файлы нелегального содержания!