Черная записная книжка / The Black Leather Notebook / Kurokawa no Techo (Hidetomo Matsuda) [7/7][Япония, 2004, драма, детектив, TVRip][Субтитры]

 
 Статистика раздачи 
Размер: 1.64 ГБ   |  Зарегистрирован: 20 мар 2017, 02:24   |   .torrent скачан: 0 раз
Сидеров: 3  [ 0 байт/сек ]     Личеров: 1  [ 0 байт/сек ]  
  

Черная записная книжка / The Black Leather Notebook / Kurokawa no Techo (Hidetomo Matsuda) [7/7][Япония, 2004, драма, детектив, TVRip][Субтитры]

Сообщение Lester » 20 мар 2017, 02:24

Черная записная книжка / The Black Leather Notebook
黒革の手帖 / Kurokawa no Techo


Оригинальное название: 黒革の手帖 / Kurokawa no Techo
Английское название: The Black Leather Notebook
Год выпуска: 2004
Страна: Япония
Жанр: драма, детектив
Продолжительность: 7 эпизодов по 60 мин
Перевод: Субтитры
Режиссер: Hidetomo Matsuda
В ролях:
Yonekura Ryoko
Nakamura Toru
Shaku Yumiko
Muroi Shigeru
Watanabe Ikkei
Shibuki Jun
Yoshioka Miho
Yanagiba Toshiro
Yamamoto Yuko
Tsugawa Masahiko
Kobayashi Nenji
Umishima Yuki
Maki Yoko (ep5&6)

Описание: Гинза - ночной город, наполненный амбициями и острым желанием...
Как простая банковская служащая, присвоившая огромную сумму денег, попала в этот подпольный мир? Какова ее конечная цель? Ее тайное оружие - черная записная книжка.
Экранизация одноименного произведения Мацумото Сейтё.
Это первая часть условной трилогии (Kurokawa no Techo (2004), Kemonomichi (2006), Warui Yatsura (2007)) снятой на TV Asahi по его произведениям.
Во всех сериалах главную роль играет Ёнекура Рёко.

Доп. информация: Русские субтитры от Hikari
Тайминг: Avallac'h


Качество видео: TVRip
Формат: MP4
Видео кодек: H.264 PSP AVC
Аудио кодек: AAC
Видео: MPEG4 Video H.264 PSP AVC 480x272 512 kbps
Аудио: AAC 48000Hz stereo 128 Kbps
General
Complete name : S:\Silicon uTorrent (2)\Bengoshi no Kuzu\[DORAMA]Kurokawa no Techo\Kurokwa no Techo 01.mp4
Format : MPEG-4
Format profile : Base Media
Codec ID : isom
File size : 277 MiB
Duration : 1h 0mn
Overall bit rate mode : Variable
Overall bit rate : 644 Kbps
Encoded date : UTC 2016-04-17 21:13:54
Tagged date : UTC 2016-04-17 21:13:54

Video
ID : 1
Format : AVC
Format/Info : Advanced Video Codec
Format profile : [email protected]
Format settings, CABAC : Yes
Format settings, ReFrames : 3 frames
Codec ID : avc1
Codec ID/Info : Advanced Video Coding
Duration : 1h 0mn
Bit rate : 512 Kbps
Maximum bit rate : 3 266 Kbps
Width : 480 pixels
Height : 272 pixels
Display aspect ratio : 16:9
Frame rate mode : Constant
Frame rate : 23.976 fps
Color space : YUV
Chroma subsampling : 4:2:0
Bit depth : 8 bits
Scan type : Progressive
Bits/(Pixel*Frame) : 0.164
Stream size : 220 MiB (80%)
Writing library : x264 core 130 r2273 b3065e6
Encoding settings : cabac=1 / ref=3 / deblock=1:1:1 / analyse=0x1:0x131 / me=umh / subme=10 / psy=1 / psy_rd=1.00:0.00 / mixed_ref=1 / me_range=16 / chroma_me=1 / trellis=2 / 8x8dct=0 / cqm=0 / deadzone=21,11 / fast_pskip=0 / chroma_qp_offset=-2 / threads=3 / lookahead_threads=1 / sliced_threads=0 / nr=0 / decimate=1 / interlaced=0 / bluray_compat=0 / constrained_intra=0 / bframes=3 / b_pyramid=0 / b_adapt=2 / b_bias=0 / direct=3 / weightb=1 / open_gop=0 / weightp=2 / keyint=250 / keyint_min=23 / scenecut=40 / intra_refresh=0 / rc_lookahead=60 / rc=2pass / mbtree=1 / bitrate=512 / ratetol=1.0 / qcomp=0.70 / qpmin=0 / qpmax=69 / qpstep=4 / cplxblur=20.0 / qblur=0.5 / ip_ratio=1.40 / aq=1:0.60
Encoded date : UTC 2016-04-17 21:13:54
Tagged date : UTC 2016-04-17 21:13:59

Audio
ID : 2
Format : AAC
Format/Info : Advanced Audio Codec
Format profile : LC
Codec ID : 40
Duration : 1h 0mn
Bit rate mode : Variable
Bit rate : 128 Kbps
Maximum bit rate : 184 Kbps
Channel(s) : 2 channels
Channel positions : Front: L R
Sampling rate : 48.0 KHz
Compression mode : Lossy
Delay relative to video : 83ms
Stream size : 55.0 MiB (20%)
Encoded date : UTC 2016-04-17 21:13:58
Tagged date : UTC 2016-04-17 21:13:59
Episode 01
Episode 02
Episode 03
Episode 04
Episode 05
Episode 06
Episode 07
 
Не забывайте говорить Спасибо. Не уходите с раздачи!   
Торрент: Зарегистрирован [20 мар 2017, 02:24] Для скачивания .torrent
необходима регистрация
Или скачать с помощью
MediaGet
Статус:
Проверен
 
.torrent скачан: 0 раз
Хэш: 02687ac5d04c6977716c38c6b95d54f0e452cb74
Размер: 1.64 ГБ (1 761 097 745 байт)
Стать Автором раздачи
 
 
Раздал: 100 ГБ
Скачал: 0 байт
Ратио: Seed.
Сообщения: 70844
Зарегистрирован: 09 апр 2015, 23:00


  • Похожие торренты
    Ответы
    Просмотры
    Последнее сообщение

Вернуться в Дорамы для PSP

Кто сейчас на конференции

Сейчас эту тему просматривают: нет зарегистрированных пользователей и гости: 1

Ресурс не предоставляет электронные версии произведений, а занимается лишь коллекционированием и каталогизацией ссылок, присылаемых и публикуемых на форуме нашими читателями. Если вы являетесь правообладателем какого-либо представленного материала и не желаете чтобы ссылка на него находилась в нашем каталоге, свяжитесь с нами и мы незамедлительно удалим её. Файлы для обмена на трекере предоставлены пользователями сайта, и администрация не несёт ответственности за их содержание. Просьба не заливать файлы, защищенные авторскими правами, а также файлы нелегального содержания!